Subcategories

Joe Silvera - Soldering Made Simple [repost]

Posted By: ParRus
Joe Silvera - Soldering Made Simple [repost]

Joe Silvera - Soldering Made Simple
DVD5 | .ISO, VIDEO_TS, NTSC, 1626 kbps, 720x480 | English, AC3, 192 kbps, 2 Ch | 92 mins | 2.65 GB
Genre: eLearning Video

See and hear Joe Silvera demonstrate basic techniques, explain the tools and materials, and create a beaded, soldered necklace.
This dvd focuses on two projects to teach basic soldering and production skills: soldering jump rings, making a custom pendant from jump wrings and wire with soldering, and soldering connections in your jewelry, like chain links, charms and even jump rings with beads on them!

General
Complete name : VTS_05_1.VOB
Format : MPEG-PS
File size : 90.4 MiB
Duration : 6mn 49s
Overall bit rate mode : Variable
Overall bit rate : 1 855 Kbps

Video
ID : 224 (0xE0)
Format : MPEG Video
Format version : Version 2
Format profile : Main@Main
Format settings, BVOP : Yes
Format settings, Matrix : Default
Format settings, GOP : M=3, N=15
Duration : 6mn 49s
Bit rate mode : Variable
Bit rate : 1 626 Kbps
Maximum bit rate : 9 008 Kbps
Width : 720 pixels
Height : 480 pixels
Display aspect ratio : 16:9
Frame rate : 29.970 fps
Standard : NTSC
Color space : YUV
Chroma subsampling : 4:2:0
Bit depth : 8 bits
Scan type : Progressive
Compression mode : Lossy
Bits/(Pixel*Frame) : 0.157
Time code of first frame : 00:00:00:00
Time code source : Group of pictures header
Stream size : 79.3 MiB (88%)

Audio
ID : 189 (0xBD)-128 (0x80)
Format : AC-3
Format/Info : Audio Coding 3
Mode extension : CM (complete main)
Format settings, Endianness : Big
Muxing mode : DVD-Video
Duration : 6mn 48s
Bit rate mode : Constant
Bit rate : 192 Kbps
Channel(s) : 2 channels
Channel positions : Front: L R
Sampling rate : 48.0 KHz
Bit depth : 16 bits
Compression mode : Lossy
Stream size : 9.36 MiB (10%)

Menu
Screenshots

Joe Silvera - Soldering Made Simple [repost]

Joe Silvera - Soldering Made Simple [repost]

Joe Silvera - Soldering Made Simple [repost]

Joe Silvera - Soldering Made Simple [repost]

Joe Silvera - Soldering Made Simple [repost]

Joe Silvera - Soldering Made Simple [repost]

Exclusive eLearning Videos ParRus-blogadd to bookmarks

Joe Silvera - Soldering Made Simple [repost]