Subcategories

Skillshare - Songwriting for EDM with Boris Berlin (2016)

Posted By: ParRus
Skillshare - Songwriting for EDM with Boris Berlin (2016)

Skillshare - Songwriting for EDM with Boris Berlin
WEBRip | English | MP4 | 1280 x 720 | AVC ~2500 kbps | 23.976 fps
AAC | 127 Kbps | 48.0 KHz | 2 channels | 00:52:09 | 981.6 MB
Genre: Video Tutorial / Sound Processing

Writing songs in the style of EDM (Electronic Dance Music) poses unique challenges and warrants the inclusion of the production track into the writing process.
In this 52 minute class with songwriter, producer and film composer Boris Berlin you will learn the fundamentals of writing songs that work effectively in EDM. Boris teaches different ways of creating contrast and dynamics to keep the music exciting while certain aspects remain constant.

Boris draws from years of experience writing, producing and remixing for various artists, bands and record labels. Prior to coming to New York, he had earned a Bachelor’s Degree in Songwriting and Music Production & Engineering at Berklee College of Music.

This class is geared towards aspiring songwriters, producers and DJ’s in the EDM genre. Some basic experience in a Digital Audio Software (DAW) is useful for the completion of the class project but not required as you can also collaborate with a producer or DJ to help complete the assignment.

Content:

01. Introduction
02. Process & Project - Write & Produce a Song
03. Groove
04. Chord Progressions (or Not)
05. Song Form
06. Lyrics
07. Chorus Design
08. Bass
09. Production
10. Closing Thoughts

also You can look my other last: Sound Processing-posts

General
Complete name : 02. Process & Project - Write & Produce a Song.mp4
Format : MPEG-4
Format profile : Base Media
Codec ID : isom
File size : 28.0 MiB
Duration : 1mn 29s
Overall bit rate mode : Variable
Overall bit rate : 2 630 Kbps
Encoded date : UTC 2016-03-15 06:51:10
Tagged date : UTC 2016-03-15 06:51:10

Video
ID : 1
Format : AVC
Format/Info : Advanced Video Codec
Format profile : Main@L3.1
Format settings, CABAC : Yes
Format settings, ReFrames : 4 frames
Codec ID : avc1
Codec ID/Info : Advanced Video Coding
Duration : 1mn 29s
Bit rate : 2 500 Kbps
Maximum bit rate : 4 070 Kbps
Width : 1 280 pixels
Height : 720 pixels
Display aspect ratio : 16:9
Frame rate mode : Constant
Frame rate : 23.976 fps
Color space : YUV
Chroma subsampling : 4:2:0
Bit depth : 8 bits
Scan type : Progressive
Bits/(Pixel*Frame) : 0.113
Stream size : 26.6 MiB (95%)
Writing library : Zencoder Video Encoding System
Encoded date : UTC 2016-03-15 06:50:53
Tagged date : UTC 2016-03-15 06:51:10
Color primaries : BT.709
Transfer characteristics : BT.709
Matrix coefficients : BT.709

Audio
ID : 2
Format : AAC
Format/Info : Advanced Audio Codec
Format profile : LC
Codec ID : 40
Duration : 1mn 29s
Bit rate mode : Variable
Bit rate : 127 Kbps
Maximum bit rate : 134 Kbps
Channel(s) : 2 channels
Channel positions : Front: L R
Sampling rate : 48.0 KHz
Compression mode : Lossy
Delay relative to video : 83ms
Stream size : 1.36 MiB (5%)
Encoded date : UTC 2016-03-15 06:50:37
Tagged date : UTC 2016-03-15 06:51:10

Screenshots

Skillshare - Songwriting for EDM with Boris Berlin (2016)

Skillshare - Songwriting for EDM with Boris Berlin (2016)

Skillshare - Songwriting for EDM with Boris Berlin (2016)

Skillshare - Songwriting for EDM with Boris Berlin (2016)

Exclusive eLearning Videos ParRus-blogadd to bookmarks

Skillshare - Songwriting for EDM with Boris Berlin (2016)