Tags
Language
Tags

The Way of the Dream: Conversations on Jungian Dream Interpretation (1985)

Posted By: ParRus
The Way of the Dream: Conversations on Jungian Dream Interpretation (1985)

The Way of the Dream: Conversations on Jungian Dream Interpretation
WEBRip | English | MP4 | 474 x 360 | AVC ~266 Kbps | 29.970 fps
AAC | 96 Kbps | 44.1 KHz | 2 channels | ~10 hours | 1.47 GB
Genre: eLearning Video / Dream Analysis, Dream Psychology, Self Improvement

The Way of the Dream is based on an extraordinary series of films made by Fraser Boa, who collected first-person accounts of dreams in street interviews with ordinary men and women in various parts of the world.
He then asked the eminent psychoanalyst Marie-Louise von Franz to interpret these dreams on film, just as she would in a private analytical session. The resulting test is a primer explaining and demonstrating the art and science of dream analysis for the general public. The material covered includes dreams of men, dreams of women, what dreams tell us about ourselves and our relationships, the historical significance of dreams, and dreams about death and dying. Dr. von Franz concludes that one of the healthiest things people can do is to pay attention to their dreams: "Dreams show us how to find meaning in our lives, how to fulfill our own destiny, how to realize the greater potential of life within us.

also You can find other my useful: Self Improvement-posts
(if old file-links don't show activity, try copy-paste them to the address bar)

General
Complete name : Marie Louise von Franz - The Way of Dream - Part 3.mp4
Format : MPEG-4
Format profile : Base Media / Version 2
Codec ID : mp42 (isom/mp42)
File size : 371 MiB
Duration : 2 h 22 min
Overall bit rate mode : Variable
Overall bit rate : 365 kb/s
Encoded date : UTC 2019-09-04 21:33:07
Tagged date : UTC 2019-09-04 21:33:07

Video
ID : 1
Format : AVC
Format/Info : Advanced Video Codec
Format profile : Baseline@L3
Format settings : 1 Ref Frames
Format settings, CABAC : No
Format settings, RefFrames : 1 frame
Format settings, GOP : M=1, N=60
Codec ID : avc1
Codec ID/Info : Advanced Video Coding
Duration : 2 h 22 min
Bit rate : 266 kb/s
Width : 474 pixels
Height : 360 pixels
Display aspect ratio : 4:3
Frame rate mode : Constant
Frame rate : 29.970 (30000/1001) FPS
Color space : YUV
Chroma subsampling : 4:2:0
Bit depth : 8 bits
Scan type : Progressive
Bits/(Pixel*Frame) : 0.052
Stream size : 271 MiB (73%)
Title : ISO Media file produced by Google Inc. Created on: 09/04/2019.
Writing library : x264 core 155 r2901 7d0ff22
Encoded date : UTC 2019-09-04 21:33:07
Tagged date : UTC 2019-09-04 21:33:07
Color range : Limited
Color primaries : BT.709
Transfer characteristics : BT.709
Matrix coefficients : BT.709

Audio
ID : 2
Format : AAC
Format/Info : Advanced Audio Codec
Format profile : LC
Codec ID : mp4a-40-2
Duration : 2 h 22 min
Bit rate mode : Variable
Bit rate : 96.0 kb/s
Channel(s) : 2 channels
Channel positions : Front: L R
Sampling rate : 44.1 kHz
Frame rate : 43.066 FPS (1024 SPF)
Compression mode : Lossy
Stream size : 97.6 MiB (26%)
Title : ISO Media file produced by Google Inc. Created on: 09/04/2019.
Language : English
Encoded date : UTC 2019-09-04 21:33:07
Tagged date : UTC 2019-09-04 21:33:07

Screenshots

The Way of the Dream: Conversations on Jungian Dream Interpretation (1985)

The Way of the Dream: Conversations on Jungian Dream Interpretation (1985)

The Way of the Dream: Conversations on Jungian Dream Interpretation (1985)

The Way of the Dream: Conversations on Jungian Dream Interpretation (1985)

Exclusive eLearning Videos ParRus-blogadd to bookmarks

The Way of the Dream: Conversations on Jungian Dream Interpretation (1985)