Subcategories

Pandit Sadanand Naiampalli - Theory and Practice of Tabla [repost]

Posted By: ParRus
Pandit Sadanand Naiampalli - Theory and Practice of Tabla [repost]

Pandit Sadanand Naiampalli - Theory and Practice of Tabla
DVD5 | VIDEO_TS, PAL, 2041 kbps, 352x576 | English, AC3, 192 kbps, 2 Ch | 4.5 hours | 4.22 GB
Genre: eLearning Video / Drum-set, Percussion

Video lessons of playing the tabla from Pandit Sadanand Naiampalli. This course designed for musicians with level from Intermediate to Advanced. At the beginning of the disc is given a brief "alphabet" (bols) to record the rhythms (taals). At the beginning of each chapter before playing taals described appropriate bols. Video and audio quality is certainly not great. But publishers of disk are put a lot of cool stuff.
Mr Naimpalli received his training from one of the great educators of tabla, Pandit Taranath Rao. Taranathji's analysis of the repertoire of tabla was based in logic and practicality and this approach is clearly evident in Sadanand Naimpaili's video. Sadanand is one of the finest maestros of tabla. The DVD covers in detail both theory and practice. This is required reading and viewing for anyone wanting to learn to play tabla.

also You can watch my other last: Drum-posts

General
Complete name : VTS_03_1.VOB
Format : MPEG-PS
File size : 1 024 MiB
Duration : 1h 2mn
Overall bit rate mode : Variable
Overall bit rate : 2 279 Kbps
Writing library : Created with Nero

Video
ID : 224 (0xE0)
Format : MPEG Video
Format version : Version 2
Format profile : Main@Main
Format settings, BVOP : Yes
Format settings, Matrix : Default
Format settings, GOP : M=3, N=15
Duration : 1h 2mn
Bit rate mode : Variable
Bit rate : 2 041 Kbps
Maximum bit rate : 9 641 Kbps
Width : 352 pixels
Height : 576 pixels
Display aspect ratio : 4:3
Frame rate : 25.000 fps
Standard : PAL
Color space : YUV
Chroma subsampling : 4:2:0
Bit depth : 8 bits
Scan type : Interlaced
Scan order : Bottom Field First
Compression mode : Lossy
Bits/(Pixel*Frame) : 0.403
Time code of first frame : 00:00:00:00
Time code source : Group of pictures header
Stream size : 917 MiB (90%)
Writing library : Ahead Nero

Audio
ID : 189 (0xBD)-128 (0x80)
Format : AC-3
Format/Info : Audio Coding 3
Mode extension : CM (complete main)
Format settings, Endianness : Big
Muxing mode : DVD-Video
Duration : 1h 2mn
Bit rate mode : Constant
Bit rate : 192 Kbps
Channel(s) : 2 channels
Channel positions : Front: L R
Sampling rate : 48.0 KHz
Bit depth : 16 bits
Compression mode : Lossy
Stream size : 86.3 MiB (8%)

Menu
Screenshots

Pandit Sadanand Naiampalli - Theory and Practice of Tabla [repost]

Pandit Sadanand Naiampalli - Theory and Practice of Tabla [repost]

Pandit Sadanand Naiampalli - Theory and Practice of Tabla [repost]

Pandit Sadanand Naiampalli - Theory and Practice of Tabla [repost]

Exclusive eLearning Videos ParRus-blogadd to bookmarks

Pandit Sadanand Naiampalli - Theory and Practice of Tabla [repost]