Subcategories

Tkactions V5 Video Guide with TonyKuyper and Sean Bagshaw (2017)

Posted By: ParRus
Tkactions V5 Video Guide with TonyKuyper and Sean Bagshaw (2017)

Tkactions V5 Video Guide with TonyKuyper and Sean Bagshaw (2017)
WEBRip | MP4 + Project files | English | 1440 x 900 | AVC ~392 kbps | 30 fps
AAC | 126 Kbps | 44.1 KHz | 2 channels | 3 hours | 866 MB
Genre: Video Tutorial / Photographing, Adobe Photoshop

This video series provides instruction on how to use the TKActions V5 panel in Photoshop CC and CS6. The TKActions V5 panel is meant transform the way we use luminosity masks. Smaller, smarter, faster, and more fun to use, it is the ultimate resource to understand, access, and add luminosity masks to a creative workflow. This tutorial series will help you get up and running with the V5 quickly. The videos cover how to install the panel, how every module and button works as well as ideas for how to incorporate the panel into a creative image-developing workflow.
NOTE: These videos do not include the TKActions V5 panel. The TKActions V5 panel is purchased as a separate item through the Tutorials page, along with my other video courses.

Table of Contents

1 - V5 Video Guide Intro
2 - TKActionV5 Intro by Tony Kuyper
3 - Installing The V5 Panel Modules
4 - Important Color Space Settings
5 - Make A Custom V5 Photoshop Workspace
6 - About Other TKActions Panels
7 - New Features In TKActions V5
8 - The Conrol Module
9 - The Intro Module
10 - The RapidMask Module
11 - V5 RapidMask Advances
12 - The LayerMask Auto-Apply Module
13 - Visualizing Luminosity Masks On A Tone Gradient
14 - Actions Module - Vignette Clarity and Dust Removal
15 - Actions Module - Frequency Separation
16 - Actions Module - Triple Play
17 - Actions Module - Programmable Buttons
18 - Actions Module - Color Actions
19 - Saturation Masks and Saturation Painting
20 - Actions Module - Web Sharpening
21 - Complete Workflow With The V5 Panel

also You can look my other last: Photography-posts

General
Complete name : 9 - The Intro Module.mp4
Format : MPEG-4
Format profile : Base Media / Version 2
Codec ID : mp42 (isom/mp42)
File size : 56.3 MiB
Duration : 15 min 8 s
Overall bit rate mode : Variable
Overall bit rate : 520 kb/s
Movie name : 9 - The Intro Module
Performer : Sean Bagshaw
Encoded date : UTC 2016-12-07 00:33:45
Tagged date : UTC 2016-12-07 00:33:45

Video
ID : 1
Format : AVC
Format/Info : Advanced Video Codec
Format profile : Baseline@L4.1
Format settings, CABAC : No
Format settings, ReFrames : 1 frame
Codec ID : avc1
Codec ID/Info : Advanced Video Coding
Duration : 15 min 8 s
Bit rate : 392 kb/s
Width : 1 440 pixels
Height : 900 pixels
Display aspect ratio : 16:10
Frame rate mode : Constant
Frame rate : 30.000 FPS
Standard : NTSC
Color space : YUV
Chroma subsampling : 4:2:0
Bit depth : 8 bits
Scan type : Progressive
Bits/(Pixel*Frame) : 0.010
Stream size : 42.4 MiB (75%)
Language : English
Encoded date : UTC 2016-12-07 00:33:46
Tagged date : UTC 2016-12-07 00:33:46
Color range : Limited

Audio
ID : 2
Format : AAC
Format/Info : Advanced Audio Codec
Format profile : LC
Codec ID : 40
Duration : 15 min 8 s
Bit rate mode : Variable
Bit rate : 126 kb/s
Maximum bit rate : 423 kb/s
Channel(s) : 2 channels
Channel positions : Front: L R
Sampling rate : 44.1 kHz
Frame rate : 43.066 FPS (1024 spf)
Compression mode : Lossy
Stream size : 13.6 MiB (24%)
Language : English
Encoded date : UTC 2016-12-07 00:33:46
Tagged date : UTC 2016-12-07 00:33:46

Screenshots

Tkactions V5 Video Guide with TonyKuyper and Sean Bagshaw (2017)

Tkactions V5 Video Guide with TonyKuyper and Sean Bagshaw (2017)

Tkactions V5 Video Guide with TonyKuyper and Sean Bagshaw (2017)

Tkactions V5 Video Guide with TonyKuyper and Sean Bagshaw (2017)

Tkactions V5 Video Guide with TonyKuyper and Sean Bagshaw (2017)

Exclusive eLearning Videos ParRus-blogadd to bookmarks

Feel free to contact me PM
when links are dead or want any repost

Tkactions V5 Video Guide with TonyKuyper and Sean Bagshaw (2017)