Subcategories

Trader Dante - Module 1: Swing Trading Forex and Financial Futures

Posted By: ParRus
Trader Dante - Module 1: Swing Trading Forex and Financial Futures

Trader Dante - Module 1: Swing Trading Forex and Financial Futures
WEBRip | English | MP4 | 1280 x 720 | AVC ~76.8 kbps | 15 fps
AAC 93.2 Kbps 44.1 KHz | 2 channels | ~20 hours | 1.44 GB
Genre: eLearning Video / Trading

This is the complete Module 1 of Trader Dante's Special Webinar series (as of November 2016), which includes an overview of his swing trading strategy. If you don't know who Trader Dante (aka Tom Dante)
Each of these special webinars covers an element of my trading strategy, or the business of trading, in detail.

The material in each one can be understood and implemented, independently of the others.
This is true even of the webinars that fall in two parts.

As a result, a trader can view a single webinar to understand how I trade a particular setup or approach a key concept.
They may then ensure they can both understand and implement the material before moving onto other webinars.

At the same time, viewed in order, as a whole, the webinars present a comprehensive overview of my approach to the
financial markets and how I make money from them.


Module 1: Swing Trading Forex and Financial Futures

Webinar 01: Order Flow Dynamics In FX And Financial Futures Markets
Webinar 02: How To Draw Levels
Webinar 03: The Swing Failure Pattern
Webinar 04: Price Patterns For Directional Bias
Webinar 05: How To Trade Levels Part 1
Webinar 06: How To Trade Levels Part 2
Webinar 07: Trade Management
Webinar 08: How To Trade Gaps
Webinar 09: Market Correlations & News
Webinar 10: Effective Risk Management
Webinar 11: Routine & Record Keeping
Webinar 12: 30 Trade Examples

also You can find my other last: Trading-posts

General
Complete name : Trader_Dante_How_To_Draw_Levels.mp4
Format : MPEG-4
Format profile : Base Media / Version 2
Codec ID : mp42 (M4V /mp42/isom)
File size : 141 MiB
Duration : 1 h 54 min
Overall bit rate : 172 kb/s
Encoded date : UTC 2012-08-31 18:10:11
Tagged date : UTC 2012-08-31 18:10:11

Video
ID : 1
Format : AVC
Format/Info : Advanced Video Codec
Format profile : High@L3.1
Format settings : CABAC / 4 Ref Frames
Format settings, CABAC : Yes
Format settings, RefFrames : 4 frames
Codec ID : avc1
Codec ID/Info : Advanced Video Coding
Duration : 1 h 54 min
Source duration : 1 h 54 min
Bit rate : 76.8 kb/s
Width : 1 280 pixels
Height : 720 pixels
Display aspect ratio : 16:9
Frame rate mode : Constant
Frame rate : 15.000 FPS
Color space : YUV
Chroma subsampling : 4:2:0
Bit depth : 8 bits
Scan type : Progressive
Bits/(Pixel*Frame) : 0.006
Stream size : 63.0 MiB (45%)
Source stream size : 63.0 MiB (45%)
Language : English
Encoded date : UTC 2012-08-31 18:10:11
Tagged date : UTC 2012-08-31 18:10:11
Color range : Limited
Color primaries : BT.709
Transfer characteristics : BT.709
Matrix coefficients : BT.709
mdhd_Duration : 6896783

Audio
ID : 2
Format : AAC
Format/Info : Advanced Audio Codec
Format profile : LC
Codec ID : mp4a-40-2
Duration : 1 h 54 min
Source duration : 1 h 54 min
Bit rate mode : Constant
Bit rate : 93.2 kb/s
Channel(s) : 2 channels
Channel positions : Front: L R
Sampling rate : 44.1 kHz
Frame rate : 43.066 FPS (1024 SPF)
Compression mode : Lossy
Stream size : 76.7 MiB (54%)
Source stream size : 76.7 MiB (54%)
Language : English
Encoded date : UTC 2012-08-31 18:10:11
Tagged date : UTC 2012-08-31 18:10:11
mdhd_Duration : 6910173
Screenshots

Trader Dante - Module 1: Swing Trading Forex and Financial Futures

Trader Dante - Module 1: Swing Trading Forex and Financial Futures

Trader Dante - Module 1: Swing Trading Forex 			  		 	 	  		 	    	 			   		   	  		 		   		   	  	 			   		  		  		   	  	 			   		  	   		 	    		 						 and Financial Futures

Trader Dante - Module 1: Swing Trading Forex and Financial Futures

Trader Dante - Module 1: Swing Trading Forex and Financial Futures

Exclusive eLearning Videos ParRus-blogadd to bookmarks

Trader Dante - Module 1: Swing Trading Forex and Financial Futures