Tags
Language
Tags
June 2024
Su Mo Tu We Th Fr Sa
26 27 28 29 30 31 1
2 3 4 5 6 7 8
9 10 11 12 13 14 15
16 17 18 19 20 21 22
23 24 25 26 27 28 29
30 1 2 3 4 5 6

Irek Piekarski – Trading MasterClass

Posted By: ParRus
Irek Piekarski – Trading MasterClass

Irek Piekarski – Trading MasterClass
WEBRip | English | MP4 + PDF Guides | 1280 x 720 | AVC ~410 Kbps | 25 fps
AAC | 137 Kbps | 48.0 KHz | 2 channels | 24:41:22 | 7.23 GB
Genre: eLearning Video / Trading, Stock

Do you want more abundance? I’ve created a Trading MasterClass to help thousands reach a state of ABUNDANCE through trading & investing
Who is Irek Piekarski?
__________
“It’s not just about trading and making money. It goes so much deeper than that. The market can teach you things about yourself you never expected… some of my most impactful life lessons were experienced during the past 7 years of my trading career. The journey itself is priceless.”
“CONSTANT EVOLUTION. THAT’S WHAT DRIVES ME”.

Irek urges his students to break through their limiting beliefs and rise above the noise. He teaches that life is limitless and everything we need is already within. To him, success in anything is all about committment, perseverance, and constant evolution.

Irek’s 7 years of trading experience has brought him on a personal development journey like no other. He spent over 10,000 hours on the charts, mastering trading and investing, but he also read hundreds of books, absorbing vast amounts of knowledge on topics such as human psychology, innovation, and spirituality.

Irek’s straight up, honest approach to the markets has made him one of the best mentors in the industry. He’s taught hundreds of people all over the world how to trade, invest, and open their minds to the possibilities.

You can learn directly from Irek’s online Trading MasterClass, or keep up with him on Instagram.

MasterClass is a Revolutionary Trading Program, consisting of 44 in-depth video lessons, focusing on the FX market. It includes everything you need to know to begin your trading journey.

44 core video lessons
60+ hours of in-depth trading content
5 day/swing trading strategies
Deep focus on multi-timeframe analysis
3 comprehensive trade management techniques
Application for both beginner + experienced traders
Direct access to Irek’s years worth of trading knowledge
Tools + insights needed to capitalize on market movements
Access to a dedicated member community + chat room
Regular live trading webinars, Q&A sessions, trade videos and more

More Info: Salepage
Value: $2000


also You can find my other: Trading-posts

General
Complete name : 25 – Strategy #2 Complete Breakout Part 2.mp4
Format : MPEG-4
Format profile : Base Media / Version 2
Codec ID : mp42 (mp42/mp41/isom/avc1)
File size : 271 MiB
Duration : 1 h 8 min
Overall bit rate mode : Variable
Overall bit rate : 552 kb/s
Encoded date : UTC 2018-08-24 18:35:33
Tagged date : UTC 2018-08-24 18:35:33
IsTruncated : Yes

Video
ID : 1
Format : AVC
Format/Info : Advanced Video Codec
Format profile : High@L3.2
Format settings : CABAC / 5 Ref Frames
Format settings, CABAC : Yes
Format settings, RefFrames : 5 frames
Codec ID : avc1
Codec ID/Info : Advanced Video Coding
Duration : 1 h 8 min
Bit rate : 410 kb/s
Width : 1 280 pixels
Height : 720 pixels
Display aspect ratio : 16:9
Frame rate mode : Constant
Frame rate : 25.000 FPS
Color space : YUV
Chroma subsampling : 4:2:0
Bit depth : 8 bits
Scan type : Progressive
Bits/(Pixel*Frame) : 0.018
Stream size : 202 MiB (74%)
Writing library : x264 core 157 r10M 303c484
Encoding settings : cabac=1 / ref=5 / deblock=1:0:0 / analyse=0x3:0x113 / me=hex / subme=8 / psy=1 / psy_rd=1.00:0.00 / mixed_ref=1 / me_range=16 / chroma_me=1 / trellis=2 / 8x8dct=1 / cqm=0 / deadzone=21,11 / fast_pskip=1 / chroma_qp_offset=-2 / threads=22 / lookahead_threads=3 / sliced_threads=0 / nr=0 / decimate=1 / interlaced=0 / bluray_compat=0 / stitchable=1 / constrained_intra=0 / bframes=3 / b_pyramid=2 / b_adapt=2 / b_bias=0 / direct=3 / weightb=1 / open_gop=0 / weightp=2 / keyint=infinite / keyint_min=25 / scenecut=40 / intra_refresh=0 / rc_lookahead=50 / rc=crf / mbtree=1 / crf=20.0 / qcomp=0.60 / qpmin=5 / qpmax=69 / qpstep=4 / vbv_maxrate=2750 / vbv_bufsize=7500 / crf_max=0.0 / nal_hrd=none / filler=0 / ip_ratio=1.40 / aq=1:1.00
Encoded date : UTC 2018-08-24 18:35:33
Tagged date : UTC 2018-08-24 18:35:33
Color range : Limited
Color primaries : BT.709
Transfer characteristics : BT.709
Matrix coefficients : BT.709

Audio
ID : 2
Format : AAC
Format/Info : Advanced Audio Codec
Format profile : LC
Codec ID : mp4a-40-2
Duration : 1 h 8 min
Bit rate mode : Variable
Bit rate : 137 kb/s
Channel(s) : 2 channels
Channel positions : Front: L R
Sampling rate : 48.0 kHz
Frame rate : 46.875 FPS (1024 SPF)
Compression mode : Lossy
Stream size : 67.4 MiB (25%)
Encoded date : UTC 2018-08-24 18:35:33
Tagged date : UTC 2018-08-24 18:35:33

Screenshots

Irek Piekarski – Trading MasterClass

Irek Piekarski – Trading MasterClass

Irek Piekarski – Trading MasterClass

Irek Piekarski – Trading MasterClass

Irek Piekarski – Trading MasterClass

✅ Exclusive eLearning Videos ParRus-blogadd to bookmarks

Feel free to contact me PM
when links are dead or want any repost

Irek Piekarski – Trading MasterClass