Tags
Language
Tags
February 2023
Su Mo Tu We Th Fr Sa
29 30 31 1 2 3 4
5 6 7 8 9 10 11
12 13 14 15 16 17 18
19 20 21 22 23 24 25
26 27 28 1 2 3 4

TrueFire - Trading Solos: Americana

Posted By: ParRus
TrueFire - Trading Solos: Americana

TrueFire - Trading Solos: Americana
WEBRip | English | MP4 + PDF + MP3 jam tracks | 960 x 540 | AVC ~974 kbps
AAC 125 Kbps 48.0 KHz | 2 channels | 01:25:45 | 705 MB
Genre: eLearning Video / Guitar lesson

Jason Loughlin's Trading Solos: Americana Interactive Video Jam Session with a Top TrueFire Artist In Jason Loughlin’s Americana edition of Trading Solos you’ll jam with Jason over five popular Americana progressions, in a variety of keys and feels. Jason kicks off the course sharing some of his tone tips to help you get a great sound. And then for each of the five tracks, Jason shows you a handful of licks, soloing ideas, and comping approaches. You’ll then trade solos and comp for each other over each of the tracks.
”Trading solos with other players is a great way to step up your playing. You get to road test your ideas, get exposed to new ones and support another soloist with your rhythm playing. In this Americana edition of Trading Solos, we'll jam together over five frequently encountered Americana grooves, in a variety of keys and feels including gospel, Americana songwriter, Americana blues, Americana folk, and Americana rock. Along the way, I'll share an essential variety of go-to Americana soloing approaches, comping techniques, and other key concepts to help you develop a versatile Americana vocabulary.”

For each of the five grooves, Jason will show you a handful of licks and comping approaches that you can use. Then, you'll take turns applying those ideas by trading solos and comping for each other

Jason will explain and demonstrate all of the key concepts and approaches along the way. All of the backing tracks are included and you’ll get standard notation and tabs for each of the performances.

Plus, you’ll be able to use TrueFire’s learning tool to sync the tab and notation to the video. You can also loop or slow down the videos so that you can work with the lessons at your own pace.

Grab your guitar and let’s trade solos with Jason Loughlin!

Introduction
Hi, I'm Jason Loughlin. Welcome to Trading Solos: Americana. Trading solos with other players is a great way to step up your playing. You get to road test your ideas, get exposed to new ones and support another soloist with your rhythm playing. In this Americana edition of Trading Solos, we'll jam together over five frequently encountered americana grooves, in a variety of keys and feels including Gospel, Americana Songwriter, Americana Blues, Americana Folk, and Americana Rock. Along the way, I'll share an essential variety of go-to americana soloing approaches, comping techniques, and other key concepts to help you develop a versatile americana vocabulary. For each of the five grooves, I'll show you a handful of licks and comping approaches that you can use. Then, we'll take turns applying those ideas, trading solos, and comping. All of the backing tracks, notation and tabs are included.


Table of Contents

Americana Sonic Approaches - Tone & Gear Tips
Track 1: Gospel Vibe - Track Overview
Track 1: Gospel Vibe - Comping Approaches: Demo
Track 1: Gospel Vibe - Three Solo Ideas: Demo
Track 1: Gospel Vibe - Playalong Preview
Let's Trade Solos - Track 1: Playalong
Track 2: Songwriter - Track Overview
Track 2: Songwriter - Comping Approaches: Demo
Track 2: Songwriter - Three Solo Ideas: Demo
Track 2: Songwriter - Playalong Preview
Let's Trade Solos - Track 2: Playalong
Track 3: Americana Blues - Track Overview
Track 3: Americana Blues - Comping Approaches: Demo
Track 3: Americana Blues - Three Solo Ideas: Demo
Track 3: Americana Blues - Playalong Preview
Let's Trade Solos - Track 3: Playalong
Track 4: Americana Folk - Track Overview
Track 4: Americana Folk - Comping Approaches: Demo
Track 4: Americana Folk - Three Solo Ideas: Demo
Track 4: Americana Folk - Playalong Preview
Let's Trade Solos - Track 4: Playalong
Track 5: Rockin' Americana - Track Overview
Track 5: Rockin' Americana - Comping Approaches: Demo
Track 5: Rockin' Americana - Three Solo Ideas: Demo
Track 5: Rockin' Americana - Playalong Preview
Let's Trade Solos - Track 5: Playalong
Trading Solos: Americana - Conclusion

also You can find my other helpful guitar lesson-posts
(if old file-links don't show activity, try copy-paste them to the address bar)

General
Complete name : 14.mp4
Format : MPEG-4
Format profile : Base Media
Codec ID : isom (isom/iso2/avc1/mp41)
File size : 32.9 MiB
Duration : 4 min 9 s
Overall bit rate mode : Variable
Overall bit rate : 1 107 kb/s
Writing application : Lavf58.45.100

Video
ID : 1
Format : AVC
Format/Info : Advanced Video Codec
Format profile : Main@L3.1
Format settings : CABAC / 4 Ref Frames
Format settings, CABAC : Yes
Format settings, RefFrames : 4 frames
Codec ID : avc1
Codec ID/Info : Advanced Video Coding
Duration : 4 min 9 s
Bit rate : 974 kb/s
Width : 960 pixels
Height : 540 pixels
Display aspect ratio : 16:9
Frame rate mode : Constant
Frame rate : 29.970 (30000/1001) FPS
Standard : NTSC
Color space : YUV
Chroma subsampling : 4:2:0
Bit depth : 8 bits
Scan type : Progressive
Bits/(Pixel*Frame) : 0.063
Stream size : 29.0 MiB (88%)
Color range : Limited
Color primaries : BT.601 NTSC
Transfer characteristics : BT.601
Matrix coefficients : BT.601
mdhd_Duration : 249450

Audio
ID : 2
Format : AAC
Format/Info : Advanced Audio Codec
Format profile : LC
Codec ID : mp4a-40-2
Duration : 4 min 9 s
Bit rate mode : Variable
Bit rate : 125 kb/s
Maximum bit rate : 128 kb/s
Channel(s) : 2 channels
Channel positions : Front: L R
Sampling rate : 48.0 kHz
Frame rate : 46.875 FPS (1024 SPF)
Compression mode : Lossy
Stream size : 3.73 MiB (11%)
Default : Yes
Alternate group : 1
Screenshots

TrueFire - Trading Solos: Americana

TrueFire - Trading Solos: Americana

TrueFire - Trading Solos: Americana

TrueFire - Trading Solos: Americana

TrueFire - Trading Solos: Americana

✅ Exclusive eLearning Videos ParRus-blogadd to bookmarks
Feel free to contact me PM
when links are dead or want any repost

TrueFire - Trading Solos: Americana