Subcategories

Trance Kick & Bass Video Tutorial with Allan Morrow (2019)

Posted By: ParRus
Trance Kick & Bass Video Tutorial with Allan Morrow (2019)

Trance Kick & Bass Video Tutorial with Allan Morrow (2019)
WEBRip | English | MP4 | 1920 x 1080 | AVC ~1221 kbps | 30 fps
AAC 304 Kbps 44.1 KHz | 2 channels | 1h 50mn | 1.18 GB
Genre: eLearning Video / Sound Processing, Music Production

This Allan Morrow – Trance Kick & Bass Tutorial Video [1 hr 50 mins] will show you exactly how to create a professional sounding Trance Kick & Bass for your track. Kick & Bass is the foundation of any electronic dance music track, so it needs to be solid & sit correctly for maximum impact!
The video covers:
– Picking the right Kick for your track.
– Choosing a bass pattern that will work with your track.
– Choosing which sounds will work best for your bass.
– Creating a nice sub bass.
– Keying your Trance Kick & Bass together.
– EQ & compression.
– Effects used on bass.
– Parallel compression.

also You can watch my other helpful: sound processing-posts
(if old file-links don't show activity, try copy-paste them to the address bar)

General
Complete name : AM-Studios-Allan-Morrow-Trance-Kick-Bass-Video-Tutorial-001.mp4
Format : MPEG-4
Format profile : Base Media / Version 2
Codec ID : mp42 (isom/iso2/avc1/mp41)
File size : 1.18 GiB
Duration : 1 h 50 min
Overall bit rate mode : Variable
Overall bit rate : 1 530 kb/s
Encoded date : UTC 2017-08-31 18:39:50
Tagged date : UTC 2017-08-31 19:47:27

Video
ID : 1
Format : AVC
Format/Info : Advanced Video Codec
Format profile : Main@L5
Format settings : CABAC / 5 Ref Frames
Format settings, CABAC : Yes
Format settings, RefFrames : 5 frames
Codec ID : avc1
Codec ID/Info : Advanced Video Coding
Duration : 1 h 50 min
Bit rate : 1 221 kb/s
Width : 1 920 pixels
Height : 1 080 pixels
Display aspect ratio : 16:9
Frame rate mode : Constant
Frame rate : 30.000 FPS
Color space : YUV
Chroma subsampling : 4:2:0
Bit depth : 8 bits
Scan type : Progressive
Bits/(Pixel*Frame) : 0.020
Stream size : 965 MiB (80%)
Encoded date : UTC 2017-08-31 18:39:50
Tagged date : UTC 2017-08-31 19:47:27
Color primaries : BT.709
Transfer characteristics : BT.709
Matrix coefficients : BT.709

Audio
ID : 2
Format : AAC
Format/Info : Advanced Audio Codec
Format profile : LC
Codec ID : mp4a-40-2
Duration : 1 h 50 min
Bit rate mode : Variable
Bit rate : 304 kb/s
Maximum bit rate : 469 kb/s
Channel(s) : 2 channels
Channel positions : Front: L R
Sampling rate : 44.1 kHz
Frame rate : 43.066 FPS (1024 SPF)
Compression mode : Lossy
Stream size : 240 MiB (20%)
Encoded date : UTC 2017-08-31 18:39:50
Tagged date : UTC 2017-08-31 18:42:02
Screenshots

Trance Kick & Bass Video Tutorial with Allan Morrow (2019)

Trance Kick & Bass Video Tutorial with Allan Morrow (2019)

Trance Kick & Bass Video Tutorial with Allan Morrow (2019)

Trance Kick & Bass Video Tutorial with Allan Morrow (2019)

Trance Kick & Bass Video Tutorial with Allan Morrow (2019)

✅ Exclusive eLearning Videos ParRus-blogadd to bookmarks

Feel free to contact me PM
when links are dead or want any repost

Trance Kick & Bass Video Tutorial with Allan Morrow (2019)