Subcategories

TrueFire - Rick Payne's Bluenotes

Posted By: ParRus
TrueFire - Rick Payne's Bluenotes

TrueFire - Rick Payne's Bluenotes
DATA-DVD | English | WMV + PDF tabs | 320 x 240 | WMV3 ~1638 kbps | 25 fps
WMA 128 Kbps 44.1 KHz | 2 channels | ~2 hours | 808 MB
Genre: eLearning Video / Guitar lesson

Bluenotes will teach you how to balance blue notes with chromatic, passing and neighbor tones correctly to add color, depth and richness to your phrasing. Rick Payne says, “like many guitarists, I was always confused as to what Pentatonic this and Pentatonic that meant. Guitar books varied in their interpretation of blues scales and Pentatonic, and still do. Most of us get through in the end by using our ears and not the grey stuff in between.
However, I thought it would be useful and time saving to share with you some of the grey stuff I’ve learned along the way. Even if you are already a rip rooting soloist, Bluenotes will help tie it all together.”
The Bluenotes interactive manual takes you through the course step-by-step with easy links to video and PowerTab elements.
You’ll also learn three instrumentals that cover all the bases for the techniques covered: Bending the Blues, an instrumental highlighting blue note bending. Chromatic Blues an instrumental using chromatic tones and Neighbor Blues an instrumental using neighbor notes and slides.
For your listening and learning pleasure, Bluenotes also includes an addendum of 13 blues tunes in CD quality MP3 format.

also You can find my other helpful guitar lesson-posts
(if old file-links don't show activity, try copy-paste them to the address bar)

General
Complete name : example4_Custom1.wmv
Format : Windows Media
File size : 3.17 MiB
Duration : 14 s 280 ms
Overall bit rate mode : Constant
Overall bit rate : 1 862 kb/s
Maximum Overall bit rate : 1 783 kb/s
Encoded date : UTC 2004-08-09 20:59:38.421

Video
ID : 2
Format : VC-1
Format profile : MP@LL
Codec ID : WMV3
Codec ID/Info : Windows Media Video 9
Codec ID/Hint : WMV3
Description of the codec : Windows Media Video 9
Duration : 14 s 280 ms
Bit rate mode : Constant
Bit rate : 1 638 kb/s
Width : 340 pixels
Height : 240 pixels
Display aspect ratio : 1.417
Frame rate : 25.000 FPS
Color space : YUV
Chroma subsampling : 4:2:0
Bit depth : 8 bits
Scan type : Progressive
Compression mode : Lossy
Bits/(Pixel*Frame) : 0.803
Stream size : 2.79 MiB (88%)
Language : English (Great Britain)

Audio
ID : 1
Format : WMA
Format version : Version 2
Codec ID : 161
Codec ID/Info : Windows Media Audio
Description of the codec : Windows Media Audio 9 - 128 kbps, 44 kHz, stereo (A/V) 1-pass CBR
Duration : 14 s 280 ms
Bit rate mode : Constant
Bit rate : 128 kb/s
Channel(s) : 2 channels
Sampling rate : 44.1 kHz
Bit depth : 16 bits
Stream size : 223 KiB (7%)
Language : English (Great Britain)
Screenshots

TrueFire - Rick Payne's Bluenotes

TrueFire - Rick Payne's Bluenotes

TrueFire - Rick Payne's Bluenotes

TrueFire - Rick Payne's Bluenotes

✅ Exclusive eLearning Videos ParRus-blogadd to bookmarks
Feel free to contact me PM
when links are dead or want any repost

TrueFire - Rick Payne's Bluenotes