Subcategories

Truefire: Jump Start - Fingerstyle

Posted By: ParRus
Truefire: Jump Start - Fingerstyle

Truefire: Jump Start - Fingerstyle
WEBRip | English | AVI | 1280 x 720 | XviD ~1287 kbps | 25 fps
MP3 128 Kbps 44.1 KHz | 2 channels | 01:54:35 | 1.13 GB
Genre: eLearning Video / Guitar lesson

Most beginners believe that they need to know how to read music, understand theory, struggle through boring exercises and learn hundreds of chords to play fingerstyle guitar. NOT SO! Guitar is the most popular instrument on the planet because it's the easiest instrument to learn how to play. Thousands of popular songs can be played with just a few chords and a couple of fingerpicking patterns. Learn those few chords and fingerpicking patterns, along with the basics of holding and tuning a guitar and you too will be able to play hundreds of your favorite songs.
also You can find my other helpful Guitar-posts
(if old file-links don't show activity, try copy-paste them to the address bar)

General
Complete name : TrueFire - Jump Start - Fingerstyle.avi
Format : AVI
Format/Info : Audio Video Interleave
File size : 1.14 GiB
Duration : 1h 54mn
Overall bit rate : 1 425 Kbps

Video
ID : 0
Format : MPEG-4 Visual
Format profile : Advanced Simple@L5
Format settings, BVOP : No
Format settings, QPel : No
Format settings, GMC : No warppoints
Format settings, Matrix : Default (H.263)
Codec ID : XVID
Codec ID/Hint : XviD
Duration : 1h 54mn
Bit rate : 1 287 Kbps
Width : 1 280 pixels
Height : 720 pixels
Display aspect ratio : 16:9
Frame rate : 25.000 fps
Color space : YUV
Chroma subsampling : 4:2:0
Bit depth : 8 bits
Scan type : Progressive
Compression mode : Lossy
Bits/(Pixel*Frame) : 0.056
Stream size : 1.03 GiB (90%)
Writing library : XviD 1.2.1 (UTC 2008-12-04)

Audio
ID : 1
Format : MPEG Audio
Format version : Version 1
Format profile : Layer 3
Codec ID : 55
Codec ID/Hint : MP3
Duration : 1h 54mn
Bit rate mode : Constant
Bit rate : 128 Kbps
Channel(s) : 2 channels
Sampling rate : 44.1 KHz
Compression mode : Lossy
Stream size : 105 MiB (9%)
Alignment : Split accross interleaves
Interleave, duration : 45 ms (1.12 video frame)
Screenshots

Truefire: Jump Start - Fingerstyle

Truefire: Jump Start - Fingerstyle

Truefire: Jump Start - Fingerstyle

Truefire: Jump Start - Fingerstyle

Truefire: Jump Start - Fingerstyle

✅ Exclusive eLearning Videos ParRus-blogadd to bookmarks

Feel free to contact me PM
when links are dead or want any repost

Truefire: Jump Start - Fingerstyle