Subcategories

Ben Lacy's - Two-Hand Groove Guitar [repost]

Posted By: ParRus
Ben Lacy's - Two-Hand Groove Guitar [repost]

Ben Lacy's - Two-Hand Groove Guitar
DATA-DVD | English | MP4 + PDF tabs + MP3 jam tracks | 720 x 406 | AVC ~1452 kbps | 29.970 fps
AAC 128 Kbps 44.1 KHz | 2 channels | ~3 hours | 1.43 GB
Genre: eLearning Video / Guitar lesson

Funkify your six-string grooves with polyphonic techniques Hire a bass player for the gig: $150. Hire a drummer: $150. Hire a horn section: $75 a man. Play all of the band parts yourself: Priceless. No, we're not talking about one of those evil little midi-crap machines that cats are using instead of real players 'cause gigs just don't pay what they used to. We're talking going solo on guitar and funkifying your six-string grooves with polyphonic techniques for crafting drum, bass, and horn parts a la Ben Lacy and his Two-Hand Groove Guitar technique.
If you're familiar with Ben Lacy, we probably had you at 'hello' and you're already downloading the course. For the rest of you, let's put it this way – go to the big NAMM show or any major guitar festival; look for the biggest crowd of people; fight your way to the front of that crowd, and you'll find Ben Lacy playing his extraterrestrial you-know-what off. You won't believe your eyes and ears.

"Lacy's technique is so mind-boggling it really needs to be seen to be believed. He is a one-man band, providing his own bass and percussive parts while simultaneously laying down rhythmic chords and melodies."

Indeed, Lacy does things on guitar that no other living thing on this planet even comes close to pulling off. In fact, we couldn't come up with a technique category to even classify what he does. So, to be straight up about it, we can't promise you that Two-Hand Groove Guitar will impart everything you need to know to play like Ben Lacy. Nothing short of a mind-meld will accomplish that.

We can however promise that you'll learn to incorporate some of Ben's techniques into your own playing with powerful results. You'll also learn to craft and maintain majorly funky groove in any tune that you apply these techniques to. Plus, Ben gives you a peek under the hood of several of his signature tunes and arrangements.

Ben starts you off with right and left-hand techniques for working drum parts into your playing. You’ll learn how to make snare, kick, hi-hat and various drum fill sounds using just your fingers, strings and fretboard. Once you have the basic techniques down, Lacy shows you how to integrate triplets, quads, polyrhythms and 8-stroke rolls for maximum groove.

To fill out the rhythm section, Ben then shows you left-hand techniques for playing bass lines with hammer-ons on the lower strings. You'll get a grip on this pretty quickly but the challenging part is playing those bass lines along with the drum sounds – no worries, this too will come relatively quickly once you get comfortable synchronizing the two techniques. You'll find a million ways to spice up your tunes, arrangements and solos with these moves and this alone is worth the price of admission. But there's more.

What better way to funk up a groove than to add a horn section? Lacy drills down on right and left-hand techniques for fingering, plucking, smacking and brushing chords on the high strings to emulate a horn section. Pulling this off while playing the drum and bass parts is a crazy multi-tasking finger-twisting feat but this is still within the realm of possibility for we mere mortals.

So what's the rub? Melody and soloing on top of all of the above. Fortunately, Ben spares us this seemingly impossible task in Two-Hand Groove Guitar. His attitude, which we wholeheartedly support, is that students should first focus on getting their groove on by working the drum, bass and horn techniques until that muscle memory becomes automatic. Once that happens, the melody and soloing will emerge with practice. OK, years and years of practice.

Need a good reason to pick up Two-Hand Groove Guitar?

1. Just to look behind the curtain and see how Ben does it.
2. To incorporate amazing sonic qualities in your own playing.
3. To prove us wrong and learn how to play just like Ben.

also You can look my other last: Guitar Lessons-posts

General
Complete name : blthgg22.mp4
Format : MPEG-4
Format profile : Base Media / Version 2
Codec ID : mp42
File size : 23.2 MiB
Duration : 2mn 3s
Overall bit rate : 1 583 Kbps
Encoded date : UTC 2012-03-19 13:25:18
Tagged date : UTC 2012-03-19 13:25:18

Video
ID : 2
Format : AVC
Format/Info : Advanced Video Codec
Format profile : Baseline@L3.1
Format settings, CABAC : No
Format settings, ReFrames : 2 frames
Codec ID : avc1
Codec ID/Info : Advanced Video Coding
Duration : 2mn 3s
Bit rate : 1 452 Kbps
Width : 720 pixels
Height : 406 pixels
Display aspect ratio : 16:9
Frame rate mode : Constant
Frame rate : 29.970 fps
Standard : NTSC
Color space : YUV
Chroma subsampling : 4:2:0
Bit depth : 8 bits
Scan type : Progressive
Bits/(Pixel*Frame) : 0.166
Stream size : 21.3 MiB (92%)
Language : English
Encoded date : UTC 2012-03-19 13:25:18
Tagged date : UTC 2012-03-19 13:25:18
Color range : Limited

Audio
ID : 1
Format : AAC
Format/Info : Advanced Audio Codec
Format profile : LC
Codec ID : 40
Duration : 2mn 3s
Bit rate mode : Constant
Bit rate : 128 Kbps
Channel(s) : channel0
Channel(s)_Original : 2 channels
Channel positions : Front: L R
Sampling rate : 44.1 KHz
Compression mode : Lossy
Stream size : 1.88 MiB (8%)
Language : English
Encoded date : UTC 2012-03-19 13:25:18
Tagged date : UTC 2012-03-19 13:25:18
Screenshots

Ben Lacy's - Two-Hand Groove Guitar [repost]

Ben Lacy's - Two-Hand Groove Guitar [repost]

Ben Lacy's - Two-Hand Groove Guitar [repost]

Ben Lacy's - Two-Hand Groove Guitar [repost]

Exclusive eLearning Videos ParRus-blogadd to bookmarks

Ben Lacy's - Two-Hand Groove Guitar [repost]