Tags
Language
Tags

Unreal Engine 5 For The Unity Developer (08/2021)

Posted By: ParRus
Unreal Engine 5 For The Unity Developer (08/2021)

Unreal Engine 5 For The Unity Developer
WEBRip | English | MP4 | 1280 x 720 | AVC ~1836 Kbps | 30 fps
AAC | 128 Kbps | 48.0 KHz | 2 channels | Subs: English (.srt) | ~5 hours | 2.65 GB
Genre: eLearning Video / Development, Game Development, Unreal Engine

A beginner friendly Unreal Engine Course (Available For Free On YouTube! Search "DevGods")
What you'll learn
An introduction to the basic knowledge you will need to make games in Unreal Engine 5.
An introduction to how Unreal Engine's game framework works compared to Unity.
An introduction to UE5's interface.
An introduction to Unreal's C++ coding standard.

Requirements
Basic Programming Skills
A will to learn the Unreal way of doing things

Description
What is good DEV GODS! This course is actually free on my YouTube Channel. I tried to put it here on Udemy for free as well but they only allow 2 hours of free content. If you want you can search DEV GODS on YouTube to get this course for free but if you would like to support me the go ahead and grab this course on a sale!

This course is a basic introduction to Unreal Engine and how the game framework is setup to help new developers get up and running fast. The engine has templates that give you a head start on your game idea. In my opinion game development should never start from ground zero and with Unreal Engine you wont have to. This course is aimed at Unity Developers who already have some experience with a programming language and they are looking to make the jump to Unreal Engine 5. There are some lectures that give you an in depth look at some of the C++ functionality and syntax you need to be aware of when coding in Unreal Engine 5. The hardest part is getting out of the Unity way of doing things and focusing on learning the Unreal Way. Hopefully this course helps with that transition.

Who this course is for:
Beginner Unreal Engine Developers
Intermediate Unity Developers

also You can find my other useful: Development-posts

General
Complete name : 002 Adding A Dynamic Particle Effect.mp4
Format : MPEG-4
Format profile : Base Media
Codec ID : isom (isom/iso2/avc1/mp41)
File size : 253 MiB
Duration : 17 min 55 s
Overall bit rate : 1 973 kb/s
Writing application : Lavf58.12.100

Video
ID : 1
Format : AVC
Format/Info : Advanced Video Codec
Format profile : Main@L3.1
Format settings : CABAC / 4 Ref Frames
Format settings, CABAC : Yes
Format settings, RefFrames : 4 frames
Codec ID : avc1
Codec ID/Info : Advanced Video Coding
Duration : 17 min 55 s
Bit rate : 1 836 kb/s
Nominal bit rate : 3 000 kb/s
Width : 1 280 pixels
Height : 720 pixels
Display aspect ratio : 16:9
Frame rate mode : Constant
Frame rate : 30.000 FPS
Color space : YUV
Chroma subsampling : 4:2:0
Bit depth : 8 bits
Scan type : Progressive
Bits/(Pixel*Frame) : 0.066
Stream size : 235 MiB (93%)
Writing library : x264 core 148
Encoding settings : cabac=1 / ref=3 / deblock=1:0:0 / analyse=0x1:0x111 / me=umh / subme=6 / psy=1 / psy_rd=1.00:0.00 / mixed_ref=1 / me_range=16 / chroma_me=1 / trellis=1 / 8x8dct=0 / cqm=0 / deadzone=21,11 / fast_pskip=1 / chroma_qp_offset=-2 / threads=22 / lookahead_threads=3 / sliced_threads=0 / nr=0 / decimate=1 / interlaced=0 / bluray_compat=0 / constrained_intra=0 / bframes=3 / b_pyramid=2 / b_adapt=1 / b_bias=0 / direct=1 / weightb=1 / open_gop=0 / weightp=2 / keyint=60 / keyint_min=6 / scenecut=0 / intra_refresh=0 / rc_lookahead=60 / rc=cbr / mbtree=1 / bitrate=3000 / ratetol=1.0 / qcomp=0.60 / qpmin=0 / qpmax=69 / qpstep=4 / vbv_maxrate=3000 / vbv_bufsize=6000 / nal_hrd=none / filler=0 / ip_ratio=1.40 / aq=1:1.00

Audio
ID : 2
Format : AAC
Format/Info : Advanced Audio Codec
Format profile : LC
Codec ID : mp4a-40-2
Duration : 17 min 55 s
Duration_LastFrame : -1 ms
Bit rate mode : Constant
Bit rate : 128 kb/s
Channel(s) : 2 channels
Channel positions : Front: L R
Sampling rate : 48.0 kHz
Frame rate : 46.875 FPS (1024 SPF)
Compression mode : Lossy
Stream size : 16.4 MiB (6%)
Default : Yes
Alternate group : 1

Screenshots

Unreal Engine 5 For The Unity Developer (08/2021)

Unreal Engine 5 For The Unity Developer (08/2021)

Unreal Engine 5 For The Unity Developer (08/2021)

Unreal Engine 5 For The Unity Developer (08/2021)

Unreal Engine 5 For The Unity Developer (08/2021)

Exclusive eLearning Videos ParRus-blogadd to bookmarks

Unreal Engine 5 For The Unity Developer (08/2021)