Subcategories

Visual Wilderness - Ultimate Landscape Photography Course

Posted By: ParRus
Visual Wilderness - Ultimate Landscape Photography Course

Visual Wilderness - Ultimate Landscape Photography Course
WEBRip | MP4 + Project files | English | 1280 x 720 | AVC ~2500 kbps | 23.976 fps
AAC | 115 Kbps | 44.1 KHz | 2 channels | 05:36:19 | 7.93 GB
Genre: Video Tutorial / Photographing

Includes Getting it Right in Camera Vol 1 & 2 and Practical Lightroom Tutorials
What You’ll Learn
Go beyond mastering technical skills and capture stunning photos right in camera—regardless of the conditions.
Understand how and where to set your focus so you can capture a diverse array of subjects at your desired sharpness.
Explore the interaction of focus, composition and light and see how we manage these elements to select a proper exposure.
Find out how to use Auto ISO mode for aerial and wildlife photography.
How to use multiple filters to capture smooth flow lines in the water at Öxarárfoss even in midday light.
Learn how to set up your camera’s focus tracking mechanism to capture birds in flight
Discover how choosing the correct depth of field can simplify your compositions while trying to capture those gorgeous puffins.

Topics include:
- How to evaluate an image to decide what kinds of adjustments to make
- Effective use of clone and healing brush tool to remove unwanted objects
- Learn to merge multiple images to create a panorama
- When and How to use the radial filter tool to emphasize a photo
- Explore effective use of camera profiles, white balance, the HSL panel, and the graduated filter tool
- Learn concepts in straightforward, non-technical terms that make it easy to understand how to capture stunning photos right in camera.
- Gain access to start-to-finish case studies that will allow you to watch professionals in the field as they shoot a diverse array of subjects.

Content:

1. CH1 - INTRODUCTION
HOW TO DOWNLOAD VIDEOS: Introduction to this course with Jay, Varina and Brent. What can you expect and how this course will improve you landscape photography.

2. CH2 - WHERE TO PHOTOGRAPH
Fieldwork and Research, Antelope Canyon Story, Getting Ready - Equipment and Essentials, Upon Arrival, Interview with Park Ranger, Weather Prediction - Intellicast

3. CH3 - EQUIPMENT FOR LANDSCAPE PHOTOGRAPHY
Equipment, Whats in my Camera Bag, Hyperfocal Distance Explained

4. CH4 - EXAMPLES: Location and Equipment
Location and Equipment Examples

5. CH5 - LIGHT AND EXPOSURE EXPLAINED
Light and Exposure Explained

6. CH6 - EXAMPLE: Light and Exposure
Light and Exposure Examples

7. CH7 - COMPOSITION AND CREATIVITY
Composition & Creativity

8. CH8 - POST PROCESSING & WORKFLOW
Post Processing Workflow

9. CASE STUDY #1: Macro Salt
CASE STUDY #1: Macro Salt

10. CASE STUDY #2: Night Shoot
CASE STUDY #2: Night Shoot

11. CASE STUDY #3: Beach Shoot
CASE STUDY #3: Beach Shoot

12. CASE STUDY #4: Sunset Shoot
CASE STUDY #4: Sunset Shoot

13. CASE STUDY #5: Waves & Speed
CASE STUDY #5: Waves & Speed

14. CASE STUDY #6: Panorama
CASE STUDY #6: Panorama

15. CASE STUDY #7: Sand Dunes
CASE STUDY #7: Sand Dunes

16. CASE STUDY #8: Seascape
CASE STUDY #8: Seascape

17. CASE STUDY #9: Forest
CASE STUDY #9: Forest

18. BONUS: Landscape Photography Tips
BONUS Tips

19. CONCLUSION: Putting it all together
Putting it all together

Price: $160
More Info: Salepage

also You can look my other last: Photography-posts

General
Complete name : Case Study #9- Forest – Macro.mp4
Format : MPEG-4
Format profile : Base Media
Codec ID : isom
File size : 109 MiB
Duration : 5mn 49s
Overall bit rate mode : Variable
Overall bit rate : 2 618 Kbps
Encoded date : UTC 2014-02-07 21:01:16
Tagged date : UTC 2014-02-07 21:01:16
Writing application : Lavf53.32.100

Video
ID : 1
Format : AVC
Format/Info : Advanced Video Codec
Format profile : High@L3.1
Format settings, CABAC : Yes
Format settings, ReFrames : 2 frames
Codec ID : avc1
Codec ID/Info : Advanced Video Coding
Duration : 5mn 49s
Bit rate : 2 500 Kbps
Width : 1 280 pixels
Height : 720 pixels
Display aspect ratio : 16:9
Frame rate mode : Constant
Frame rate : 23.976 fps
Color space : YUV
Chroma subsampling : 4:2:0
Bit depth : 8 bits
Scan type : Progressive
Bits/(Pixel*Frame) : 0.113
Stream size : 104 MiB (95%)
Writing library : x264 core 122
Encoding settings : cabac=1 / ref=2 / deblock=1:0:0 / analyse=0x3:0x113 / me=hex / subme=6 / psy=0 / mixed_ref=0 / me_range=16 / chroma_me=1 / trellis=0 / 8x8dct=1 / cqm=0 / deadzone=21,11 / fast_pskip=1 / chroma_qp_offset=0 / threads=4 / sliced_threads=0 / nr=0 / decimate=1 / interlaced=0 / bluray_compat=0 / constrained_intra=0 / bframes=3 / b_pyramid=0 / b_adapt=1 / b_bias=0 / direct=3 / weightb=1 / open_gop=0 / weightp=2 / keyint=60 / keyint_min=25 / scenecut=40 / intra_refresh=0 / rc_lookahead=40 / rc=2pass / mbtree=1 / bitrate=2500 / ratetol=1.0 / qcomp=0.60 / qpmin=10 / qpmax=51 / qpstep=4 / cplxblur=20.0 / qblur=0.5 / ip_ratio=1.40 / aq=1:1.00
Language : English
Encoded date : UTC 2014-02-07 21:01:16
Tagged date : UTC 2014-02-07 21:01:16

Audio
ID : 2
Format : AAC
Format/Info : Advanced Audio Codec
Format profile : LC
Codec ID : 40
Duration : 5mn 49s
Bit rate mode : Variable
Bit rate : 115 Kbps
Maximum bit rate : 128 Kbps
Channel(s) : 2 channels
Channel positions : Front: L R
Sampling rate : 44.1 KHz
Compression mode : Lossy
Stream size : 4.80 MiB (4%)
Language : English
Encoded date : UTC 2014-02-07 21:01:16
Tagged date : UTC 2014-02-07 21:01:16

Screenshots

Visual Wilderness - Ultimate Landscape Photography Course

Visual Wilderness - Ultimate Landscape Photography Course

Visual Wilderness - Ultimate Landscape Photography Course

Visual Wilderness - Ultimate Landscape Photography Course

Visual Wilderness - Ultimate Landscape Photography Course

Exclusive eLearning Videos ParRus-blogadd to bookmarks

Visual Wilderness - Ultimate Landscape Photography Course