Subcategories

Peter Fader - VSA Trading Video Course

Posted By: ParRus
Peter Fader - VSA Trading Video Course

Peter Fader - VSA Trading Video Course
WEBRip | English | MP4 + Project Files | 1024 x 740 | AVC ~1121 Kbps | 29.970 fps
AAC | 99.6 Kbps | 44.1 KHz | 2 channels | 06:09:18 | 1.39 GB
Genre: eLearning Video / Forex, Trading, Stock

Learn to trade the Forex market like a pro using Volume Spread Analysis, Richard Wyckoff, Fibonacci, Moving Averages, support and resistance, supply and demand.
Volume Spread Analysis (VSA) methodology takes a multi-dimensional approach to analyzing the market, and looks at the relationship between price, spread or range, and volume. VSA is a proprietary market analysis method conceived by veteran trader, Tom Williams, who was a highly successful member of a professional trading syndicate in the 1960s.

The VSA method works particularly well at highlighting the imbalances of Supply and Demand.

Volume Spread Analysis seeks to establish the cause of price movements, and from the cause, predict the future direction of prices. The ‘cause’ is quite simply the imbalance between Supply and Demand in the market, which is created by the activity of professional operators. It is the close study of the reactions of these specialists, market maker professionals, or ‘Smart Money’, which will enlighten you to future market behavior.

Some technical indicators attempt to combine volume and price movements together. This is a better way, but rest assured that this approach has its limitations too, because at times the market will go up on high volume, but can do exactly the same thing on low volume. Prices can suddenly go sideways, or even fall off, on exactly the same volume. So, there are obviously other factors at work.

12 hours of video covering Pete’s ENTIRE method in an organized series.
This full video course is designed to get you trading his method immediately.
Starting as simple as setting up your trading platform properly, and leading you all the way to finding high probability setups using all his tools including Volume, EVERYTHING is covered.

Pete is also offering a special LIVE WEBINAR trading session with your purchase to address any remaining questions you may have.

The complete method is now available for $225usd. To receive all 14 videos and secure your live trading session,

You can find my other useful: Trading-posts

General
Complete name : 05. VSA high low attraction.mp4
Format : MPEG-4
Format profile : Base Media
Codec ID : isom (isom/iso2/avc1/mp41)
File size : 206 MiB
Duration : 23 min 33 s
Overall bit rate mode : Variable
Overall bit rate : 1 224 kb/s
Genre : m
Encoded date : UTC 2019-02-03 16:41:41
Tagged date : UTC 2019-02-03 16:41:41
Writing application : Lavf51.12.1

Video
ID : 1
Format : AVC
Format/Info : Advanced Video Codec
Format profile : High@L3.1
Format settings : CABAC / 1 Ref Frames
Format settings, CABAC : Yes
Format settings, RefFrames : 1 frame
Format settings, GOP : M=1, N=12
Codec ID : avc1
Codec ID/Info : Advanced Video Coding
Duration : 23 min 31 s
Bit rate mode : Variable
Bit rate : 1 121 kb/s
Width : 1 024 pixels
Height : 740 pixels
Display aspect ratio : 1.384
Frame rate mode : Constant
Frame rate : 29.970 (29970/1000) FPS
Original frame rate : 29.970 (30000/1001) FPS
Color space : RGB
Chroma subsampling : 4:2:0
Bit depth : 8 bits
Scan type : Progressive
Bits/(Pixel*Frame) : 0.049
Stream size : 189 MiB (91%)
Encoded date : UTC 2019-02-03 16:41:41
Tagged date : UTC 2019-02-03 16:41:41
Color range : Limited
Matrix coefficients : Identity

Audio
ID : 2
Format : AAC
Format/Info : Advanced Audio Codec
Format profile : LC
Codec ID : mp4a-40-2
Duration : 23 min 33 s
Bit rate mode : Variable
Bit rate : 99.6 kb/s
Channel(s) : 2 channels
Channel positions : Front: L R
Sampling rate : 44.1 kHz
Frame rate : 43.066 FPS (1024 SPF)
Compression mode : Lossy
Stream size : 16.8 MiB (8%)
Encoded date : UTC 2019-02-03 16:41:41
Tagged date : UTC 2019-02-03 16:41:41

Screenshots

Peter Fader - VSA Trading Video Course

Peter Fader - VSA Trading Video Course

Peter Fader - VSA Trading Video Course

Peter Fader - VSA Trading Video Course

✅ Exclusive eLearning Videos ParRus-blogadd to bookmarks

Feel free to contact me PM
when links are dead or want any repost

Peter Fader - VSA Trading Video Course