Subcategories
Tags
Language
Tags

Vue 3 - The Complete Guide (incl. Router, Vuex, Composition API)

Posted By: ParRus
Vue 3 - The Complete Guide (incl. Router, Vuex, Composition API)

Vue 3 - The Complete Guide (incl. Router, Vuex, Composition API)
WEBRip | English | MP4 + Project Files | 1920 x 1080 | AVC ~374 kbps | 30 fps
AAC | 128 Kbps | 44.1 KHz | 2 channels | 30:30:27 | 7.86 GB
Genre: eLearning Video / Development, Programming, Vue.js

Learn Vue.js - in its latest version - step by step from the ground up. Learn how to build highly reactive web apps with one of the most popular frameworks! No matter at which metric you look at (Google Trends, Github Stars, Tweets …) - VueJS is the shooting star in the world of JavaScript frameworks - it simply is amazing!
This course teaches the latest version of Vue (Vue.js 3) from the ground up and in great detail. We'll cover all the core basics but we'll not stop thereafter - this course also dives into advanced concepts like the Composition API introduced with Vue 3.

Frontend frameworks are extremely popular because they give us this reactive, great user experience we know from mobile apps - but now in the browser! No wonder that jobs requiring frontend framework skills like VueJS are amongst the best paid ones in the industry!

You may know Angular 2+ and ReactJS, well, VueJS combines the best of both frameworks and makes building anything from small widgets to big, enterprise-level apps a breeze and a whole lot of fun!

And if you don't know the two mentioned frameworks: That's fine, too, this course does not expect any knowledge of any other frontend framework - you will learn it all throughout this Course!

This course covers it all!

We'll start at the very basics, what Vue.js is and how it works before we move on to more complex and advanced topics but I'll be honest: It's too much to fit it all into one sentence, so here's what you'll learn in this Course:

What is VueJS and Why would you use it?
The Basics (including the basic Syntax, Understanding Templates and much more!)
How to Output Reactive Data & Listen to Events
Interacting with DOM (Rendering Lists, Conditionally attaching/ detaching Elements …)
Setting up a Development Environment and Workflow
Using Components (and what Components are to begin with)
A Deep Dive Look Behind the Scenes of Vue
Binding to Form Inputs
Sending Http Requests to Backend APIs
Authentication & Vue
How to make your App more Beautiful with Animations and Transitions
How to create an awesome Single-Page-Application (SPA) with Routing
How to improve State Management by using Vuex
How to Deploy the App
And much more …

All these topics are taught with real examples and demo projects. This course is full of exercises, challenges and bigger courser projects that allow you to practice what you learned.

Along with many other smaller projects, we will build a couple of bigger main projects:

The "Monster Slayer" Game - a game running in the browser, 100% powered by Vue
The "Learning Resource Manager" - a web app that allows you to manage (add, delete, list) your favorite learning resources
The "Find a Coach" app - a web app that allows you to sign up / login, register as a coach, list and filter available coaches and send messages to coaches

Is this course for you?

Now that you know what this course is about, let's see if this course is for you!

Here are three types of students who will love this course:

Student #1:

Has some JavaScript experience and is interested in what this language can do. You heard and read that JavaScript allows you to create nice web applications and enhance existing web pages. VueJS is your choice!

Student #2:

You already have some experience with other frontend frameworks like Angular (2+) or ReactJS. But either due to interest or disappointment of the existing frameworks, you seek some alternatives - VueJS might be what you were looking for!

Student #3:

Has experience with backend frameworks/ languages but now also wants to enter the frontend world. VueJS is an awesome choice here, it's fun, it uses native JS and it's extremely powerful!

Bonus: Student #4

Is disappointed by Angular 2+. Does a good framework need 2 hours of setup? No, certainly not - as VueJS will prove to this student!

Let's dive into VueJS right now!

also You can find my other helpful Programming-posts
(if old file-links don't show activity, try copy-paste them to the address bar)

General
Complete name : lesson15.mp4
Format : MPEG-4
Format profile : Base Media
Codec ID : isom (isom/iso2/avc1/mp41)
File size : 21.2 MiB
Duration : 5 min 47 s
Overall bit rate : 510 kb/s
Writing application : Lavf58.20.100

Video
ID : 1
Format : AVC
Format/Info : Advanced Video Codec
Format profile : High@L4
Format settings : CABAC / 4 Ref Frames
Format settings, CABAC : Yes
Format settings, RefFrames : 4 frames
Codec ID : avc1
Codec ID/Info : Advanced Video Coding
Duration : 5 min 47 s
Bit rate : 374 kb/s
Width : 1 920 pixels
Height : 1 080 pixels
Display aspect ratio : 16:9
Frame rate mode : Constant
Frame rate : 30.000 FPS
Color space : YUV
Chroma subsampling : 4:2:0
Bit depth : 8 bits
Scan type : Progressive
Bits/(Pixel*Frame) : 0.006
Stream size : 15.5 MiB (73%)
Writing library : x264 core 155
Encoding settings : cabac=1 / ref=4 / deblock=1:0:0 / analyse=0x3:0x113 / me=umh / subme=8 / psy=1 / psy_rd=1.00:0.00 / mixed_ref=1 / me_range=16 / chroma_me=1 / trellis=1 / 8x8dct=1 / cqm=0 / deadzone=21,11 / fast_pskip=1 / chroma_qp_offset=-2 / threads=24 / lookahead_threads=4 / sliced_threads=0 / nr=0 / decimate=1 / interlaced=0 / bluray_compat=0 / constrained_intra=0 / bframes=3 / b_pyramid=2 / b_adapt=2 / b_bias=0 / direct=3 / weightb=1 / open_gop=0 / weightp=2 / keyint=90 / keyint_min=46 / scenecut=0 / intra_refresh=0 / rc_lookahead=40 / rc=crf / mbtree=1 / crf=23.0 / qcomp=0.60 / qpmin=10 / qpmax=51 / qpstep=4 / vbv_maxrate=5625 / vbv_bufsize=5625 / crf_max=0.0 / nal_hrd=none / filler=0 / ip_ratio=1.41 / aq=1:1.00
Language : English
Color range : Limited
Color primaries : BT.709

Audio
ID : 2
Format : AAC
Format/Info : Advanced Audio Codec
Format profile : LC
Codec ID : mp4a-40-2
Duration : 5 min 47 s
Duration_LastFrame : -16 ms
Bit rate mode : Constant
Bit rate : 128 kb/s
Channel(s) : 2 channels
Channel positions : Front: L R
Sampling rate : 44.1 kHz
Frame rate : 43.066 FPS (1024 SPF)
Compression mode : Lossy
Stream size : 5.31 MiB (25%)
Language : English
Default : Yes
Alternate group : 1
Screenshots

Vue 3 - The Complete Guide (incl. Router, Vuex, Composition API)

Vue 3 - The Complete Guide (incl. Router, Vuex, Composition API)

Vue 3 - The Complete Guide (incl. Router, Vuex, Composition API)

Vue 3 - The Complete Guide (incl. Router, Vuex, Composition API)

Vue 3 - The Complete Guide (incl. Router, Vuex, Composition API)

Vue 3 - The Complete Guide (incl. Router, Vuex, Composition API)

✅ Exclusive eLearning Videos ParRus-blogadd to bookmarks
Feel free to contact me PM
when links are dead or want any repost

Vue 3 - The Complete Guide (incl. Router, Vuex, Composition API)