Subcategories
Tags
Language
Tags

Vue JS 2 - The Complete Guide (incl. Vue Router & Vuex) [Update]

Posted By: ParRus
Vue JS 2 - The Complete Guide (incl. Vue Router & Vuex) [Update]

Vue JS 2 - The Complete Guide (incl. Vue Router & Vuex)
WEBRip | English | MP4 + Project Files | 1280 x 720 | AVC ~336 kbps | 29.970 fps
AAC | 192 Kbps | 48.0 KHz | 2 channels | Subs: Ehglish (.srt) | ~21.5 hours | 4.84 GB
Genre: eLearning Video / Development, Programming

Vue.js is an awesome JavaScript Framework for building Frontend Applications! VueJS mixes the Best of Angular + React!
What you'll learn
Build amazing Vue.js Applications - all the Way from Small and Simple Ones up to Large Enterprise-level Ones
Understand the Theory behind Vue.js and use it in Real Projects
Leverage Vue.js in both Multi- and Single-Page-Applications (MPAs and SPAs)

Requirements
Basic JavaScript Knowledge is Required
ES6 Knowledge is a Plus but not a Must
Basic HTML and CSS Knowledge is assumed throughout the Course

Description
Hear what students are saying about the course:

He knows how to teach. Splits every details into smaller parts and makes another video for each part. For this reason you don't feel yourself boring while watching videos because lots of them about 2-3 mins not more. One of the best teachers in Udemy that I saw.

The instructor uses an easy-to-follow approach that builds knowledge easily and incrementally.

Very well laid out tutorials that are easy to follow but also run at a pace that doesn't get boring.

About the course

No matter at which Metric you look at (Google Trends, Github Stars, Tweets …) VueJS is the Shooting Star in the World of JavaScript Frameworks - it simply is amazing!

Frontend Frameworks are extremely popular because they give us this reactive, great User Experience we know from Mobile Apps - but now in the Browser! No wonder that Jobs requiring Frontend Framework Skills like VueJS are amongst the best paid ones in the Industry!

You may know Angular 2 and ReactJS, well, VueJS combines the Best of both Frameworks and makes building anything from small Widgets to big, Enterprise-Level Apps a Breeze and a whole lot of Fun! And if you don't know the two mentioned Frameworks: That's fine, too, this Course does not expect any knowledge of any other Frontend Framework - you will learn it all throughout this Course!

### This Course covers it all! ###

We'll start at the very Basics, what Vue.js is and how it works before we move on to more Complex and Advanced Topics but I'll be honest: It's too much to fit it all into one Sentence, so here's what you'll learn in this Course:

What is VueJS and Why would you use it?
Setting up a Development Environment and Workflow
The Basics (including the basic Syntax, Understanding Templates and much more!)
Interacting with DOM (Rendering Lists, Conditionally attaching/ detaching Elements …)
Using Components (and what Components are to begin with)
Binding to Form Inputs
All about Directives, Filters and Mixins
How to make your App more Beautiful with Animations and Transitions
How to create an awesome Single-Page-Application (SPA) with Routing
How to improve State Management by using Vuex
How to Deploy the App
And much more …

And all the accompanied with many Exercises and multiple Course Projects - because it isn't just about seeing Code, it's about using and practicing it!

### Is this Course for you? ###

Now that you know what this Course is about, let's see if this Course is for you!

Here are three Types of Students who will love this Course:

Student #1:

Has some JavaScript Experience and is interested in what this Language can do. He heard and read that JavaScript allows you to create nice Web Applications and enhance existing Web Pages. VueJS is your choice!

Student #2:

He already has some Experience with other Frontend Frameworks like Angular (2+) or ReactJS. But either due to interest or disappointment of the existing Frameworks, he seeks some Alternatives - VueJS might be what you were looking for!

Student #3:

Has Experience with backend Frameworks/ Languages but now also wants to enter the Frontend World. VueJS is an awesome choice here, it's fun, it uses native JS and it's extremely powerful!

Bonus: Student #4

Is disappointed by Angular 2+. Does a good Framework need 2 hours of setup? No, certainly not - as VueJS will prove to this Student!

Let's dive into VueJS right now!

Who this course is for:
This Course is for Everyone interested in Frontend Development and Major JavaScript Frameworks
This Course is for you if you want to create Reactive Applications, which run in the Browser
This Course also targets Students who prefer a native JavaScript Framework which makes Getting Started much simpler than Angular 2
Displeased with Angular 2? VueJS is for you!

also You can find my other helpful Programming-posts
(if old file-links don't show activity, try copy-paste them to the address bar)

General
Complete name : 5. The Root Component in the App.vue File.mp4
Format : MPEG-4
Format profile : Base Media / Version 2
Codec ID : mp42 (isom/iso2/avc1/mp41/mp42)
File size : 12.7 MiB
Duration : 3 min 21 s
Overall bit rate mode : Variable
Overall bit rate : 526 kb/s
Encoded date : UTC 2016-10-27 08:09:18
Tagged date : UTC 2016-10-27 08:09:18
Writing application : Lavf53.32.100

Video
ID : 1
Format : AVC
Format/Info : Advanced Video Codec
Format profile : High@L3
Format settings : CABAC / 4 Ref Frames
Format settings, CABAC : Yes
Format settings, RefFrames : 4 frames
Codec ID : avc1
Codec ID/Info : Advanced Video Coding
Duration : 3 min 21 s
Bit rate : 336 kb/s
Width : 1 280 pixels
Height : 720 pixels
Display aspect ratio : 16:9
Frame rate mode : Constant
Frame rate : 29.970 (29970/1000) FPS
Color space : YUV
Chroma subsampling : 4:2:0
Bit depth : 8 bits
Scan type : Progressive
Bits/(Pixel*Frame) : 0.012
Stream size : 8.02 MiB (63%)
Writing library : x264 core 136
Encoding settings : cabac=1 / ref=4 / deblock=1:0:0 / analyse=0x3:0x113 / me=umh / subme=7 / psy=0 / mixed_ref=1 / me_range=16 / chroma_me=1 / trellis=1 / 8x8dct=1 / cqm=0 / deadzone=21,11 / fast_pskip=0 / chroma_qp_offset=0 / threads=48 / lookahead_threads=5 / sliced_threads=0 / nr=0 / decimate=1 / interlaced=0 / bluray_compat=0 / constrained_intra=0 / bframes=16 / b_pyramid=2 / b_adapt=1 / b_bias=0 / direct=1 / weightb=1 / open_gop=0 / weightp=2 / keyint=300 / keyint_min=25 / scenecut=40 / intra_refresh=0 / rc=2pass / mbtree=0 / bitrate=336 / ratetol=1.0 / qcomp=0.60 / qpmin=10 / qpmax=51 / qpstep=4 / cplxblur=20.0 / qblur=0.5 / ip_ratio=1.40 / pb_ratio=1.30 / aq=1:1.00
Language : English
Encoded date : UTC 2016-10-27 08:09:18
Tagged date : UTC 2016-11-05 07:03:40

Audio
ID : 2
Format : AAC
Format/Info : Advanced Audio Codec
Format profile : LC
Codec ID : mp4a-40-2
Duration : 3 min 21 s
Bit rate mode : Variable
Bit rate : 192 kb/s
Channel(s) : 2 channels
Channel positions : Front: L R
Sampling rate : 48.0 kHz
Frame rate : 46.875 FPS (1024 SPF)
Compression mode : Lossy
Stream size : 4.56 MiB (36%)
Default : Yes
Alternate group : 1
Encoded date : UTC 2016-10-27 08:09:18
Tagged date : UTC 2016-11-05 07:03:40
Screenshots

Vue JS 2 - The Complete Guide (incl. Vue Router & Vuex) [Update]

Vue JS 2 - The Complete Guide (incl. Vue Router & Vuex) [Update]

Vue JS 2 - The Complete Guide (incl. Vue Router & Vuex) [Update]

Vue JS 2 - The Complete Guide (incl. Vue Router & Vuex) [Update]

✅ Exclusive eLearning Videos ParRus-blogadd to bookmarks
Feel free to contact me PM
when links are dead or want any repost

Vue JS 2 - The Complete Guide (incl. Vue Router & Vuex) [Update]