Subcategories
Tags
Language
Tags

Vue - The Complete Guide (w/ Router, Vuex, Composition API) (Updated)

Posted By: ParRus
Vue - The Complete Guide (w/ Router, Vuex, Composition API) (Updated)

Vue - The Complete Guide (w/ Router, Vuex, Composition API)
WEBRip | English | MP4 | 1920 x 1080 | AVC ~1938 Kbps | 29.783 fps
AAC | 62.2 Kbps | 48.0 KHz | 2 channels | Subs: English (srt) | ~48.5 hours | 22.5 GB
Genre: eLearning Video / Web Development, Vue JS

Vue.js is an awesome JavaScript Framework for building Frontend Applications! VueJS mixes the Best of Angular + React!
What you'll learn
Build amazing Vue.js Applications - all the Way from Small and Simple Ones up to Large Enterprise-level Ones
Understand the Theory behind Vue.js and use it in Real Projects
Leverage Vue.js in both Multi- and Single-Page-Applications (MPAs and SPAs)
Learn the latest version of Vue (Vue 3), including the brand-new Composition API

Description
No matter at which metric you look at (Google Trends, Github Stars, Tweets …) - VueJS is the shooting star in the world of JavaScript frameworks - it simply is amazing!

This bestselling course teaches the latest version of Vue (Vue.js 3) from the ground up and in great detail. We'll cover all the core basics but we'll not stop thereafter - this course also dives into advanced concepts like the Composition API introduced with Vue 3.

Frontend frameworks like Vue JS are extremely popular because they give us this reactive, great user experience we know from mobile apps - but now in the browser! No wonder that jobs requiring frontend framework skills like VueJS are amongst the best paid ones in the industry!

You may know Angular 2+ and ReactJS, well, VueJS combines the best of both frameworks and makes building anything from small widgets to big, enterprise-level apps a breeze and a whole lot of fun!

And if you don't know the two mentioned frameworks: That's fine, too, this course does not expect any knowledge of any other frontend framework - you will learn it all throughout this Course!

This course covers it all!

We'll start at the very basics, what Vue.js is and how it works before we move on to more complex and advanced topics but I'll be honest: It's too much to fit it all into one sentence, so here's what you'll learn in this Course:

What is VueJS and Why would you use it?

The Basics (including the basic Syntax, Understanding Templates and much more!)

How to Output Reactive Data & Listen to Events

Interacting with DOM (Rendering Lists, Conditionally attaching/ detaching Elements …)

Setting up a Development Environment and Workflow

Using Components (and what Components are to begin with)

A Deep Dive Look Behind the Scenes of Vue

Binding to Form Inputs

Sending Http Requests to Backend APIs

Authentication & Vue

How to make your App more Beautiful with Animations and Transitions

How to create an awesome Single-Page-Application (SPA) with Routing

How to improve State Management by using Vuex

How to Deploy the App

And much more …

All these topics are taught with real examples and demo projects. This course is full of exercises, challenges and bigger courser projects that allow you to practice what you learned.

Along with many other smaller projects, we will build a couple of bigger main projects:

The "Monster Slayer" Game - a game running in the browser, 100% powered by Vue

The "Learning Resource Manager" - a web app that allows you to manage (add, delete, list) your favorite learning resources

The "Find a Coach" app - a web app that allows you to sign up / login, register as a coach, list and filter available coaches and send messages to coaches

At the moment, this course includes both my brand-new Vue 3 course as well as my old Vue 2 course (the section marked as "VUE2"). The Vue 2 course will removed later this year.

Is this course for you?

Now that you know what this course is about, let's see if this course is for you!

Here are three types of students who will love this course:

Student #1:

Has some JavaScript experience and is interested in what this language can do. You heard and read that JavaScript allows you to create nice web applications and enhance existing web pages. VueJS is your choice!

Student #2:

You already have some experience with other frontend frameworks like Angular (2+) or ReactJS. But either due to interest or disappointment of the existing frameworks, you seek some alternatives - VueJS might be what you were looking for!

Student #3:

Has experience with backend frameworks/ languages but now also wants to enter the frontend world. VueJS is an awesome choice here, it's fun, it uses native JS and it's extremely powerful!

Bonus: Student #4

Is disappointed by Angular 2+. Does a good framework need 2 hours of setup? No, certainly not - as VueJS will prove to this student!

Let's dive into VueJS right now!

Who this course is for:
This Course is for Everyone interested in Frontend Development and Major JavaScript Frameworks
This Course is for you if you want to create Reactive Applications, which run in the Browser
This Course also targets Students who prefer a native JavaScript Framework which makes Getting Started much simpler than Angular 2
Displeased with Angular 2? VueJS is for you!

also You can find my other useful: Development-posts

General
Complete name : 3. Introducing Components.mp4
Format : MPEG-4
Format profile : Base Media
Codec ID : isom (isom/iso2/avc1/mp41)
File size : 158 MiB
Duration : 10 min 58 s
Overall bit rate mode : Variable
Overall bit rate : 2 006 kb/s
Writing application : Lavf56.30.100

Video
ID : 1
Format : AVC
Format/Info : Advanced Video Codec
Format profile : Main@L4
Format settings : CABAC / 4 Ref Frames
Format settings, CABAC : Yes
Format settings, RefFrames : 4 frames
Format settings, GOP : M=4, N=60
Codec ID : avc1
Codec ID/Info : Advanced Video Coding
Duration : 10 min 58 s
Bit rate : 1 938 kb/s
Nominal bit rate : 6 400 kb/s
Width : 1 920 pixels
Height : 1 080 pixels
Display aspect ratio : 16:9
Frame rate mode : Variable
Frame rate : 29.783 FPS
Minimum frame rate : 10.412 FPS
Maximum frame rate : 30.000 FPS
Color space : YUV
Chroma subsampling : 4:2:0
Bit depth : 8 bits
Scan type : Progressive
Bits/(Pixel*Frame) : 0.031
Stream size : 152 MiB (97%)
Writing library : x264 core 148
Encoding settings : cabac=1 / ref=3 / deblock=1:0:0 / analyse=0x1:0x111 / me=umh / subme=6 / psy=1 / psy_rd=1.00:0.00 / mixed_ref=1 / me_range=16 / chroma_me=1 / trellis=1 / 8x8dct=0 / cqm=0 / deadzone=21,11 / fast_pskip=1 / chroma_qp_offset=-2 / threads=24 / lookahead_threads=4 / sliced_threads=0 / nr=0 / decimate=1 / interlaced=0 / bluray_compat=0 / constrained_intra=0 / bframes=3 / b_pyramid=2 / b_adapt=1 / b_bias=0 / direct=1 / weightb=1 / open_gop=0 / weightp=2 / keyint=60 / keyint_min=6 / scenecut=0 / intra_refresh=0 / rc_lookahead=60 / rc=cbr / mbtree=1 / bitrate=6400 / ratetol=1.0 / qcomp=0.60 / qpmin=0 / qpmax=69 / qpstep=4 / vbv_maxrate=6400 / vbv_bufsize=12800 / nal_hrd=none / filler=0 / ip_ratio=1.40 / aq=1:1.00

Audio
ID : 2
Format : AAC
Format/Info : Advanced Audio Codec
Format profile : HE-AAC / LC
Format settings : Implicit
Codec ID : mp4a-40-2
Duration : 10 min 58 s
Bit rate mode : Variable
Bit rate : 62.2 kb/s
Maximum bit rate : 63.9 kb/s
Channel(s) : 2 channels
Channel positions : Front: L R
Sampling rate : 48.0 kHz / 24.0 kHz
Frame rate : 23.438 FPS (1024 SPF)
Compression mode : Lossy
Stream size : 4.89 MiB (3%)
Default : Yes
Alternate group : 1

Screenshots

Vue - The Complete Guide (w/ Router, Vuex, Composition API) (Updated)

Vue - The Complete Guide (w/ Router, Vuex, Composition API) (Updated)

Vue - The Complete Guide (w/ Router, Vuex, Composition API) (Updated)

Vue - The Complete Guide (w/ Router, Vuex, Composition API) (Updated)

Exclusive eLearning Videos ParRus-blogadd to bookmarks

Vue - The Complete Guide (w/ Router, Vuex, Composition API) (Updated)