Subcategories

Russell Stutely - Warriors Union (8 DVD-box)

Posted By: GoodPoster
Russell Stutely - Warriors Union (8 DVD-box)

Russell Stutely - Warriors Union (8 DVD-box)
DVDRip | English | MP4 | 640 x 360 | AVC ~1406 kbps | 25 fps
AAC 160 kbps | 48.0 KHz | 2 channels | 3.65 GB
Genre: eLearning / Martial Arts

What, exactly, is the Warrior’s Union ? It is, basically, THE place where the World’s GREATEST and most feared fighters gather to share their new skills and technologies and their VERY BEST techniques for beating the ‘bad guys’. It is simply a closed-door event – NOT open to the public – where the World’s greatest self-defense secrets are shared, and only the World’s greatest fighters are ‘invited’. It is a hidden event (this time, being ‘nestled’ on the coast of the remote island of Gozo) where the World’s most elite martial artists gather on an annual basis…where the underground and most feared fighters on the planet come to hone their skills…where the World’s greatest self-defense gurus come to share secret after secret technique that they can use against their enemies.
More info: http://www.russellstutely.com/products/warriors-union

C:\Users\Administrator\Desktop\Russell Stutely - Warriors Union (8 DVD-box)\Russell Stutely - Warriors Union Disk 3.mp4
General
Complete name : C:\Users\Administrator\Desktop\Russell Stutely - Warriors Union (8 DVD-box)\Russell Stutely - Warriors Union Disk 3.mp4
Format : MPEG-4
Format profile : Base Media
Codec ID : isom
File size : 708 MiB
Duration : 1h 3mn
Overall bit rate : 1 568 Kbps
Movie name : Russell Stutely - Warriors Union Disk 3
Encoded date : UTC 2008-11-04 21:40:23
Tagged date : UTC 2008-11-04 21:40:23
Video #1
ID : 1
Format : AVC
Format/Info : Advanced Video Codec
Format profile : Baseline@L3.0
Format settings, CABAC : No
Format settings, ReFrames : 1 frame
Codec ID : avc1
Codec ID/Info : Advanced Video Coding
Duration : 1h 3mn
Bit rate mode : Variable
Bit rate : 1 406 Kbps
Maximum bit rate : 4 322 Kbps
Width : 640 pixels
Height : 360 pixels
Display aspect ratio : 16:9
Frame rate mode : Constant
Frame rate : 25.000 fps
Resolution : 24 bits
Colorimetry : 4:2:0
Scan type : Progressive
Bits/(Pixel*Frame) : 0.244
Stream size : 635 MiB (90%)
Encoded date : UTC 2008-11-05 08:39:03
Tagged date : UTC 2008-11-04 21:41:58
Audio #2
ID : 2
Format : AAC
Format/Info : Advanced Audio Codec
Format version : Version 4
Format profile : LC
Format settings, SBR : No
Codec ID : 40
Duration : 1h 3mn
Bit rate mode : Variable
Bit rate : 160 Kbps
Maximum bit rate : 243 Kbps
Channel(s) : 2 channels
Channel positions : L R
Sampling rate : 48.0 KHz
Resolution : 16 bits
Stream size : 72.3 MiB (10%)
Encoded date : UTC 2008-11-04 21:41:50
Tagged date : UTC 2008-11-04 21:41:58

Screenshot

Russell Stutely - Warriors Union (8 DVD-box)

Russell Stutely - Warriors Union (8 DVD-box)

Russell Stutely - Warriors Union (8 DVD-box)

Russell Stutely - Warriors Union (8 DVD-box)

Russell Stutely - Warriors Union (8 DVD-box)


-No mirrors, follow the rules-

Russell Stutely - Warriors Union (8 DVD-box)