Subcategories

Shiva Rea - Yogini (2010) [Repost]

Posted By: ParRus
Shiva Rea - Yogini (2010) [Repost]

Shiva Rea - Yogini (2010)
DVDRip | English | AVI | 720 x 400 | XviD ~1799 Kbps | 25 fps
MP3 | 128 kbps | 48.0 KHz | 2 channels | 01:15:02 | 1.01 GB
Genre: Video Training / Yoga

A dynamic yoga practice designed specifically for women. Women are blessed with innate creative energy. This energy – called shakti – lies at the heart of life, yet it’s easy to become disconcerted from it. Caught up in everyday activities, women can lose sight of their inner strength. In this rejuvenating yoga program, world-renowned instructor Shiva Rea offers five fluid practices to make you feel energized and powerful, vibrant and healthy.

The customizable Yoga Matrix caters to your time and energy level, allowing you to assemble the sequences any way you wish. Try a heart-centered practice, a flowing backbend segment, a series of empowering standing poses, and a healing mediation for relaxation. Tone your body and balance your mind as you revel in the gorgeous scenery and inspirational practice.

Set in Kauai, under a breathtaking waterfall, Yogini nourishes the beauty, grace, and vitality within you.

Night 1:
Healing Meditation for Women (7 minutes). Shiva's narration is fairly flowery during this meditation. I wouldn't think a man would enjoy this meditation much She starts sitting with legs folded under and moves to standing flow with an emphasis on self-massage.

Flow of Love: Backbending Vinyasa (27 minutes): This was a nice step up from Shiva's Beginners Flow DVD, but not as advanced as the Heart-Air flow on Daily Energy. Shiva does a good job of explaining various options for those that aren't as flexible as her. The flow has a very relaxing feel, although I did have some light muscle soreness after. Begins with some gentle seated movements, moving into cat/cow, and continuing into some more advanced poses as the flow progresses including several lunge variations, standing half splits, and gate pose. Backbending is done from standing, several variations from a lunge, camel pose, bow pose, serpentine cobra, etc.

Shivasana (3 minutes)

Night 2:
Flow of Beauty : Fluid Backbending Vinyasa (16 minutes): The yoga in this flow is very fluid, reminding of the prana yoga on her Trance Dance DVD. It begins with flowing standing forward bends, standing side bend variations, and yoga squats. After about 5 minutes she moves to very fluid cat variations, and then into downward dog. There is a lunge variation, followed by serpentine cobra. After that there are fluid movements while lying on one side - a combination of rolling and "swimming with the infinite" similar to that on the Core Abs DVD where you move your arms and legs back and forward. She then closes with some free form leg/arm movements on the back.

Have not completed yet:
Flow of Empowerment: Standing Pose Vinyasa (22 minutes)

Bonus segments:
Upper Body Weights from Core Fusion. While I really do like this routine, it seems like a strange selection for this DVD!
Forward Bend from Daily Energy Flow

I see myself using this DVD over and over, and may even like it a little more than the Daily Energy DVD. The scenery is awesome, and, as usual, Shiva is an inspiring teacher.

General
Complete name : Shiva Rea Yogin_01.avi
Format : AVI
Format/Info : Audio Video Interleave
File size : 695 MiB
Duration : 50mn 12s
Overall bit rate : 1 937 Kbps
Movie name : Shiva Rea Yogini 00_00_00-01_15_02
Writing application : VirtualDubMod 1.5.10.2 (build 2540/release)
Writing library : VirtualDubMod build 2540/release
Copyright : Olu6ka
Video #0
ID : 0
Format : MPEG-4 Visual
Format profile : Advanced Simple@L5
Format settings, BVOP : 2
Format settings, QPel : No
Format settings, GMC : No warppoints
Format settings, Matrix : Default (H.263)
Codec ID : XVID
Codec ID/Hint : XviD
Duration : 50mn 12s
Bit rate : 1 799 Kbps
Width : 720 pixels
Height : 400 pixels
Display aspect ratio : 16:9
Frame rate : 25.000 fps
Color space : YUV
Chroma subsampling : 4:2:0
Bit depth : 8 bits
Scan type : Progressive
Compression mode : Lossy
Bits/(Pixel*Frame) : 0.250
Stream size : 646 MiB (93%)
Writing library : XviD 1.2.1 (UTC 2008-12-04)
Audio #1
ID : 1
Format : MPEG Audio
Format version : Version 1
Format profile : Layer 3
Mode : Joint stereo
Mode extension : MS Stereo
Codec ID : 55
Codec ID/Hint : MP3
Duration : 50mn 12s
Bit rate mode : Constant
Bit rate : 128 Kbps
Channel(s) : 2 channels
Sampling rate : 48.0 KHz
Compression mode : Lossy
Delay relative to video : 100ms
Stream size : 46.0 MiB (7%)
Alignment : Split accross interleaves
Interleave, duration : 40 ms (1.00 video frame)
Interleave, preload duration : 500 ms
Screenshots

Shiva Rea - Yogini (2010) [Repost]

Shiva Rea - Yogini (2010) [Repost]

Shiva Rea - Yogini (2010) [Repost]

For more, Visit my AH-blog

no mirrors please, Follow The Rules