Tags
Language
Tags

Igor Ledochowski - Advanced Covert Hypnosis – Mind Bending

Posted By: ParRus
Igor Ledochowski - Advanced Covert Hypnosis – Mind Bending

Igor Ledochowski - Advanced Covert Hypnosis – Mind Bending
WEBRip | English | AVI + MP3 + PDF Guides | 640 x 352 | AVC ~1750 kb/s | 29.970 fps
MP3 | 160 Kbps | 48.0 KHz | 2 channels | ~21 hours | 18.80 GB
Genre: eLearning Video / Self-Improvement

Mind Bending Language System Advanced Covert Hypnosis - Mind Bending Language System The Advanced Covert Hypnosis - Mind Bending Language System consists of the following: Advanced Covert Hypnosis - Mind Bending Language System - A 14 DVD Set
DVD 01 - The Foundations for Successful Covert Hypnosis

DVD 02 - Mind Bending Hypnotic Questions Revealed

DVD 03 - How to "Spin" People's Minds Into a Deep Trance

DVD 04 - How to Hypnotically Hijack People's Awareness

DVD 05 - Instant Ways to Use "Hypnotic Signs" for Quick Changes

DVD 06 - The New Advanced Covert Hypnosis System

DVD 07 - Mind Bending Hot Words & Covert Influence

DVD 08 - How to Use Spontaneous Mind Bending Language Anywhere Anytime with Anyone

DVD 09 - Finally Overcome Any objection with Mind Bending Reframes

DVD 10 - How to Be a True Master of Covert Hypnosis

DVD 11 - How to Easily Install the Mindset of a Master Covert Hypnotist

DVD 12 - Advanced Covert Hypnosis Strategies

DVD 13 - Finally Revealed: The Mind Bending Covert Hypnosis Sales Technique

DVD 14 - Uncovered: The Little Known Secrets of Covert Therapy


1 Manual in PDF

1 Complete Transcript in PDF


3 Bonus DVDs

Bonus DVD 01 - How to Tune Your Mind to Make Money

Bonus DVD 02 - The Little Known Secrets of Group Covert Hypnosis

Bonus DVD 03 - How to Control & Lead Groups of People Quickly & Easily


3 Bonus CDs on Mind Bending Language & Copywriting with David Garfinkel:

How To Use Mind Bending Language To Have Instant Irresistible Influence In Your Letters & Emails


6 Bonus Mind Bending Language - Abundance Inductions/Meditations

These are 6 powerful inductions with both 5 & 20 minute versions available.

Intro/MBL - Abundance Interview

1. Ignoring the Knock on the Door

2. Prefer Being Right Than Rich ?

3. Do You Refuse to Stretch Your Dreams ?

4. Need to Enrich Your Inner Blueprint ?

5. Walking Around With Your Eyes Shut ?

6. Need to Take More Action ?


Special Bonus: 2 CD Set - Special Q & A Session with Igor on Mind Bending Language


Bonus 3 CD Set - Hypnosis Crash Course


Advanced Covert Hypnosis - Mind Bending Language Card Decks

16 CD Audio Set to Accompany the Mind Bending Language Card Decks

also You can look my other helpful: Self-Improvement-posts

General
Complete name : DVD06MBLS Chapter 4.avi
Format : DivX
Format/Info : Hack of AVI
File size : 113 MiB
Duration : 8 min 13 s
Overall bit rate : 1 922 kb/s
FileExtension_Invalid : divx

Video
ID : 0
Format : MPEG-4 Visual
Format settings : BVOP1
Format settings, BVOP : 1
Format settings, QPel : No
Format settings, GMC : No warppoints
Format settings, Matrix : Default (H.263)
Muxing mode : Packed bitstream
Codec ID : DX50
Codec ID/Hint : DivX 5
Duration : 8 min 13 s
Bit rate : 1 750 kb/s
Nominal bit rate : 4 854 kb/s
Width : 640 pixels
Height : 352 pixels
Display aspect ratio : 16:9
Frame rate : 29.970 (30000/1001) FPS
Color space : YUV
Chroma subsampling : 4:2:0
Bit depth : 8 bits
Scan type : Progressive
Compression mode : Lossy
Bits/(Pixel*Frame) : 0.259
Stream size : 103 MiB (91%)
Title : Video
Writing library : DivX 1647

Audio
ID : 1
Format : MPEG Audio
Format version : Version 1
Format profile : Layer 3
Codec ID : 55
Codec ID/Hint : MP3
Duration : 8 min 13 s
Bit rate mode : Constant
Bit rate : 160 kb/s
Channel(s) : 2 channels
Sampling rate : 48.0 kHz
Compression mode : Lossy
Delay relative to video : 24 ms
Stream size : 9.41 MiB (8%)
Alignment : Split accross interleaves
Interleave, duration : 33 ms (1.00 video frame)
Interleave, preload duration : 500 ms
Title : Audio
Screenshots

Igor Ledochowski - Advanced Covert Hypnosis – Mind Bending

Igor Ledochowski - Advanced Covert Hypnosis – Mind Bending

Igor Ledochowski - Advanced Covert Hypnosis – Mind Bending

Igor Ledochowski - Advanced Covert Hypnosis – Mind Bending

✅ Exclusive eLearning Videos ParRus-blogadd to bookmarks
Feel free to contact me PM
when links are dead or want any repost

Igor Ledochowski - Advanced Covert Hypnosis – Mind Bending