Subcategories

Math Tutor DVD - The Algebra 2 Tutor [repost]

Posted By: ParRus
Math Tutor DVD - The Algebra 2 Tutor [repost]

Math Tutor DVD - The Algebra 2 Tutor
2xDVDRip | English | AVI | 640 x 480 | XviD ~752 kbps | 29.970 fps
MP3 | 101 Kbps | 48.0 KHz | 2 channels | 05:28:50 | 1.98 GB
Genre: eLearning Video / Lectures, Math

The Algebra 2 Tutor is a 6 hour course spread over 2 DVD disks that will aid the student in the core topics of Algebra 2. This DVD bridges the gap between Algebra 1 and Trigonometry, and contains essential material to do well in advanced mathematics. Many of the topics in contained in this DVD series are used in other Math courses, such as writing equations of lines, graphing equations, and solving systems of equations. These skills are used time again in more advanced courses such as Physics and Calculus.
Each topic is introduced by working example problems, beginning with the easier problems and gradually working the harder ones. In this way the student immediately gains confidence in his or her abilities and improves homework and exam taking skills.

Content:

Disk 1
Section 1: Graphing Equations
Section 2: The Slope Of A Line
Section 3: Writing Equations Of Lines
Section 4: Graphing Inequalities
Section 5: Solving Systems Of Equations By Graphing
Section 6: Solving Systems Of Equations By Substitution
Section 7: Solving Systems Of Equations By Addition

Disk 2
Section 8: Solving Systems Of Equations In Three Variables
Section 9: Simplifying Radical Expressions.
Section 10: Add/Subtract Radical Expressions.
Section 11: Multiply/Divide Radical Expressions.
Section 12: Solving Equations With Radicals.
Section 13: Fractional Exponents.
Section 14: Solving Polynomial Equations.
Section 15: The Quadratic Formula.

also You can look my other last: Math Tutor-post

General
Complete name : 13.fractional.exponents.avi
Format : AVI
Format/Info : Audio Video Interleave
File size : 166 MiB
Duration : 26mn 50s
Overall bit rate mode : Variable
Overall bit rate : 867 Kbps
Writing application : VirtualDubMod 1.5.4.1 (build 2178/release)
Writing library : VirtualDubMod build 2178/release

Video
ID : 0
Format : MPEG-4 Visual
Format profile : Advanced Simple@L5
Format settings, BVOP : 1
Format settings, QPel : No
Format settings, GMC : No warppoints
Format settings, Matrix : Custom
Codec ID : XVID
Codec ID/Hint : XviD
Duration : 26mn 50s
Bit rate : 752 Kbps
Width : 640 pixels
Height : 480 pixels
Display aspect ratio : 4:3
Frame rate : 29.970 fps
Color space : YUV
Chroma subsampling : 4:2:0
Bit depth : 8 bits
Scan type : Progressive
Compression mode : Lossy
Bits/(Pixel*Frame) : 0.082
Stream size : 144 MiB (87%)
Writing library : XviD 1.2.0.dev47 (UTC 2006-11-01)

Audio
ID : 1
Format : MPEG Audio
Format version : Version 1
Format profile : Layer 3
Mode : Joint stereo
Mode extension : MS Stereo
Codec ID : 55
Codec ID/Hint : MP3
Duration : 26mn 50s
Bit rate mode : Variable
Bit rate : 101 Kbps
Nominal bit rate : 128 Kbps
Channel(s) : 2 channels
Sampling rate : 48.0 KHz
Compression mode : Lossy
Stream size : 19.4 MiB (12%)
Alignment : Aligned on interleaves
Interleave, duration : 24 ms (0.72 video frame)
Interleave, preload duratio : 524 ms
Writing library : LAME3.97
Encoding settings : -m j -V 4 -q 2 -lowpass 17 –abr 128
Screenshots

Math Tutor DVD - The Algebra 2 Tutor [repost]

Math Tutor DVD - The Algebra 2 Tutor [repost]

Math Tutor DVD - The Algebra 2 Tutor [repost]

Math Tutor DVD - The Algebra 2 Tutor [repost]

Math Tutor DVD - The Algebra 2 Tutor [repost]

Math Tutor DVD - The Algebra 2 Tutor [repost]

Exclusive eLearning Videos ParRus-blogadd to bookmarks

Math Tutor DVD - The Algebra 2 Tutor [repost]