Tags
Language
Tags

Kevin King - Billion Dollar Seller Summit 2021

Posted By: ParRus
Kevin King - Billion Dollar Seller Summit 2021

Kevin King - Billion Dollar Seller Summit 2021
WEBRip | English | MP4 + PDF Guides | 1078 x 684 | AVC ~303 Kbps | 30 fps
AAC | 139 Kbps | 48.0 KHz | 2 channels | ~35 hours | 10.03 GB
Genre: eLearning Video / Business, Sales, Marketing

BDSS #4 –> In Person Event September 16-19, 2021 in Austin TX - TICKETS are LIMITED to 100
No fancy website needed to promote the event. It's better to spend money making sure you get the most value possible from attending.

If you know Kevin, you know his BDSS events bring it with A+++ content that can make a huge difference in your Amazon business.
This is BDSS #4, widely considered the best event for 7, 8 & 9 figure Amazon sellers. BDSS #4 will not be recorded or live streamed. Be there or miss out.

also You can find my other useful: Business-posts

General
Complete name : Brandon Young.mp4
Format : MPEG-4
Format profile : Base Media / Version 2
Codec ID : mp42 (isom/iso2/avc1/mp41)
File size : 123 MiB
Duration : 37 min 25 s
Overall bit rate mode : Variable
Overall bit rate : 459 kb/s
Season : 0
Movie name : Brandon Young

AppleStoreCatalogID : 0
Xtra : WM/EncodedBy

Video
ID : 1
Format : AVC
Format/Info : Advanced Video Codec
Format profile : Main@L4
Format settings : CABAC / 4 Ref Frames
Format settings, CABAC : Yes
Format settings, RefFrames : 4 frames
Codec ID : avc1
Codec ID/Info : Advanced Video Coding
Duration : 37 min 24 s
Bit rate : 303 kb/s
Width : 1 078 pixels
Height : 684 pixels
Display aspect ratio : 16:10
Frame rate mode : Constant
Frame rate : 30.000 FPS
Color space : YUV
Chroma subsampling : 4:2:0
Bit depth : 8 bits
Scan type : Progressive
Bits/(Pixel*Frame) : 0.014
Stream size : 81.0 MiB (66%)
Writing library : x264 core 157 r2935 545de2f
Encoding settings : cabac=1 / ref=2 / deblock=1:0:0 / analyse=0x1:0x111 / me=hex / subme=6 / psy=1 / psy_rd=1.00:0.00 / mixed_ref=1 / me_range=16 / chroma_me=1 / trellis=1 / 8x8dct=0 / cqm=0 / deadzone=21,11 / fast_pskip=1 / chroma_qp_offset=-2 / threads=12 / lookahead_threads=2 / sliced_threads=0 / nr=0 / decimate=1 / interlaced=0 / bluray_compat=0 / constrained_intra=0 / bframes=3 / b_pyramid=2 / b_adapt=1 / b_bias=0 / direct=1 / weightb=1 / open_gop=0 / weightp=1 / keyint=300 / keyint_min=30 / scenecut=40 / intra_refresh=0 / rc_lookahead=30 / rc=crf / mbtree=1 / crf=22.0 / qcomp=0.60 / qpmin=0 / qpmax=69 / qpstep=4 / vbv_maxrate=20000 / vbv_bufsize=25000 / crf_max=0.0 / nal_hrd=none / filler=0 / ip_ratio=1.40 / aq=1:1.00
Encoded date : UTC 2021-03-09 04:26:55
Tagged date : UTC 2021-03-09 04:26:55
Color range : Limited
Color primaries : BT.709
Transfer characteristics : BT.709
Matrix coefficients : BT.709
Menus : 3

Audio
ID : 2
Format : AAC
Format/Info : Advanced Audio Codec
Format profile : LC
Codec ID : mp4a-40-2
Duration : 37 min 25 s
Bit rate mode : Variable
Bit rate : 139 kb/s
Maximum bit rate : 155 kb/s
Channel(s) : 2 channels
Channel positions : Front: L R
Sampling rate : 48.0 kHz
Frame rate : 46.875 FPS (1024 SPF)
Compression mode : Lossy
Stream size : 37.1 MiB (30%)
Title : Stereo
Language : English
Default : Yes
Alternate group : 1
Encoded date : UTC 2021-03-09 04:26:55
Tagged date : UTC 2021-03-09 04:26:55

Menu
ID : 3
Codec ID : text
Duration : 37 min 25 s
Encoded date : UTC 2021-03-10 17:24:02
Tagged date : UTC 2021-03-10 17:24:02
Menu For : 1
00:00:00.000 : Chapter 1

Screenshots

Kevin King - Billion Dollar Seller Summit 2021

Kevin King - Billion Dollar Seller Summit 2021

Kevin King - Billion Dollar Seller Summit 2021

Kevin King - Billion Dollar Seller Summit 2021

Kevin King - Billion Dollar Seller Summit 2021

Exclusive eLearning Videos ParRus-blogadd to bookmarks

Kevin King - Billion Dollar Seller Summit 2021