Tags
Language
Tags

The Ultimate Guide to Buying Apartment Buildings with Private Money

Posted By: ParRus
The Ultimate Guide to Buying Apartment Buildings with Private Money

Michael Blank - The Ultimate Guide to Buying Apartment Buildings with Private Money
WEBRip | English | MP4 | 1280 x 720 | AVC ~665 Kbps | 29.970 fps
AAC | 147 Kbps | 48.0 KHz | 2 channels | ~20 hours | 7.86 GB
Genre: eLearning Video / Business, Sales, Marketing

Introducing the Ultimate Guide to Buying Apartment Buildings with Private Money The Ultimate Guide to Buying Apartment Buildings is the BEST system on the planet to help you quit the rate race in 3-5 years.
It teaches you everything you need to do your FIRST apartment building deal with a special focus on raising money.
- You''ll ge instant access to my proven step by step process of buying apt buildings with other peoples money.
- You'll become a master at analyzing deals so that you're able to make more offers.
- Then your confidence and credibility will sky-rocket which means brokers will return your phone calls and investors will want to invest with you.
- And once that happens, you'll be able to do your very FIRST deal
- And when that happens, you'll do your 2nd and 3rd deal in rapid succession and then
- You'll be able to quit your job, retire, or do whatever you want to do.

That's my 3-5 year real estate retirement plan for you.
And it all starts with your FIRST deal.
That's my passion to help people like you do their first apartment building deal. I have the system and the tools to make you successful. What I teach works any where and any one can do it if you follow what I teach in my system.

More Info: Salepage
Value: $1,997


also You can find my other last: Business-posts

General
Complete name : 03 - Week 2 - Review the Seller's Documents and Re-Evaluate the Deal from Michael on Vimeo.mp4
Format : MPEG-4
Format profile : Base Media / Version 2
Codec ID : mp42 (mp42/mp41/isom/avc1)
File size : 192 MiB
Duration : 32 min 52 s
Overall bit rate mode : Variable
Overall bit rate : 817 kb/s
Encoded date : UTC 2014-08-25 20:18:23
Tagged date : UTC 2014-08-25 20:18:23

Video
ID : 1
Format : AVC
Format/Info : Advanced Video Codec
Format profile : High@L3.1
Format settings : CABAC / 4 Ref Frames
Format settings, CABAC : Yes
Format settings, RefFrames : 4 frames
Codec ID : avc1
Codec ID/Info : Advanced Video Coding
Duration : 32 min 52 s
Bit rate : 665 kb/s
Width : 1 280 pixels
Height : 720 pixels
Display aspect ratio : 16:9
Frame rate mode : Constant
Frame rate : 29.970 (30000/1001) FPS
Color space : YUV
Chroma subsampling : 4:2:0
Bit depth : 8 bits
Scan type : Progressive
Bits/(Pixel*Frame) : 0.024
Stream size : 156 MiB (81%)
Writing library : x264 core 142 r2431 a5831aa
Encoding settings : cabac=1 / ref=3 / deblock=1:0:0 / analyse=0x3:0x113 / me=hex / subme=7 / psy=1 / psy_rd=1.00:0.00 / mixed_ref=1 / me_range=16 / chroma_me=1 / trellis=1 / 8x8dct=1 / cqm=0 / deadzone=21,11 / fast_pskip=1 / chroma_qp_offset=-2 / threads=24 / lookahead_threads=4 / sliced_threads=0 / nr=0 / decimate=1 / interlaced=0 / bluray_compat=0 / stitchable=1 / constrained_intra=0 / bframes=3 / b_pyramid=2 / b_adapt=1 / b_bias=0 / direct=1 / weightb=1 / open_gop=0 / weightp=2 / keyint=90 / keyint_min=30 / scenecut=40 / intra_refresh=0 / rc_lookahead=40 / rc=crf / mbtree=1 / crf=20.0 / qcomp=0.60 / qpmin=5 / qpmax=69 / qpstep=4 / vbv_maxrate=2750 / vbv_bufsize=7500 / crf_max=0.0 / nal_hrd=none / filler=0 / ip_ratio=1.40 / aq=1:1.00
Encoded date : UTC 2014-08-25 20:18:23
Tagged date : UTC 2014-08-25 20:18:23

Audio
ID : 2
Format : AAC
Format/Info : Advanced Audio Codec
Format profile : LC
Codec ID : mp4a-40-2
Duration : 32 min 52 s
Bit rate mode : Variable
Bit rate : 147 kb/s
Channel(s) : 2 channels
Channel positions : Front: L R
Sampling rate : 48.0 kHz
Frame rate : 46.875 FPS (1024 SPF)
Compression mode : Lossy
Stream size : 34.6 MiB (18%)
Encoded date : UTC 2014-08-25 20:18:23
Tagged date : UTC 2014-08-25 20:18:23

Screenshots

The Ultimate Guide to Buying Apartment Buildings with Private Money

The Ultimate Guide to Buying Apartment Buildings with Private Money

The Ultimate Guide to Buying Apartment Buildings with Private Money

The Ultimate Guide to Buying Apartment Buildings with Private Money

The Ultimate Guide to Buying Apartment Buildings with Private Money

✅ Exclusive eLearning Videos ParRus-blogadd to bookmarks
Feel free to contact me PM
when links are dead or want any repost

The Ultimate Guide to Buying Apartment Buildings with Private Money