Tags
Language
Tags
January 2023
Su Mo Tu We Th Fr Sa
1 2 3 4 5 6 7
8 9 10 11 12 13 14
15 16 17 18 19 20 21
22 23 24 25 26 27 28
29 30 31 1 2 3 4

Building with Logs: A Complete Guide to Log Building

Posted By: ParRus
Building with Logs: A Complete Guide to Log Building

Building with Logs: A Complete Guide to Log Building
9xDVDRip | English | AVI | 720 x 480 | MPEG-4 ~1499 Kbps | 29.970 fps
MP3 | 164 Kbps | 48.0 KHz | 2 channels | 9x60 min | 6.22 GB
Genre: eLearning Video / Homebuilding, Repair, Woodworking

This set of 9 videos, each approximately 60 minutes long, was created by B. Allan Mackie and is packed with information and designed for the serious builder. Narrated by B. Allan Mackie himself, they contain everything you need to know to construct your own state-of-the-art home with consideration of the ecology in mind.
BUILDING WITH LOGS complete 9 set educational video guide to log building.
1) Introduction – This introductory video outlines the general requirements and preparations for working on a log building. It emphasizes serious safety instructions, particularly chain saw safety.
2) Tools and Terms – Demonstrates the necessary tools and explains log building terminology.
3) House Start – Preparation of building site and instructions for setting up pre-building site.
4) Basic Building – This video demonstrates a basic saddle notch practice technique and shows the complete procedure for placing a log on the building.
5) Other Notches I – Step-by-step instructions for the Blind Dovetail Notch, Lock Notch and Square Notch.
6) Other Notches II – Step-by-step instructions for the Round Notch, Blind Wall Notch, Dovetail Notch and Post Notch.
7) Walls, Windows and Doors – Basic instruction for wall construction and control, openings for windows and doors and instructions for electrical access.
8) Joists and Beams/Roof Systems I – Complete instructions on placing second floor beams and for post and beam roof system.
9) Roof Systems II – Step-by-Step detail on building king post trusses.

Look also other Woodworking and Home Repairs Videos:

The Versatile Router

WoodWorking - Frame and Panel Construction

Workshop of Charles Neil - Making Large Panels

The Pocket Hole Solution to Trim Carpentry with Gary Striegler DVD5

Unlocking the Secrets of Traditional Design with George Walker

Building Drawers with Andy Rae

Popular Woodworking Magazine -...dworkers Part I & II Video

Mastering_Your_Bandsaw

Woodsmith Seminars Podcast

Fine Woodworking - 2008 Annual Collection

Measuring Furniture for Reprod...ine Woodworking Video Workshop

Basic Router Jigs with Ron Fox

Basic Stairbuilding DVD with Scott Schuttner

Legacy Woodworking Machinery Vol.2

Woodworkers Guild of America -...r Your Shop And Home, Volume 7

Woodworkers Guild of America - Easy projects with native materials

Small Shop Tips & Techniques with Jim Cummins

Basic Box Making with Doug Stowe

Steve Latta - Fundamentals of Inlay: Making Ornamental Bandings

Router Joinery with Gary Rogowski - Fine Woodworking DVD Workshop

Chairmaking Techniques with Je... Fine Woodworking DVD Workshop

Framing Walls with Larry Haun - Fine Homebuilding DVD Workshop

Framing Roofs with Larry Haun

Framing Floors & Stairs (with Larry Haun)

Installing Trim with Craig Savage - Fine Homebuilding DVD Workshop

Installing Kitchen Cabinets and Countertops: with Tom Law

Building Decks with Scott Schutter - Fine Homebuilding DVD Workshop

Cabinetmaking Made Easy with Marc Sommerfeld

Dovetail a Drawer with Frank Klausz

Biscuit Joinery with Frank Klausz

Hand Tools - Tuning and Using Chisels, Planes and Saws

Chip Carving with Wayne Barton

The Router Workshop (Episode Guide 500-700)

The Router Workshop (Episode Guide 1000-1400)

Wood Works Complete Series 1 -7

Carving Techniques and Projects

Chip Carving with Jeff Fleisher & Charles Neil

Build the 21st-century Workbench with Robert W. Lang

Advanced Hand-Cut Dovetails with Rob Cosman

Woodcarving - 3 Ornamental Carving with Chris Pye

Relief Carving in a Different Light with David Bennett

Positive Home Solutions - Woodworking Vol. 1 with Robert Roskind

Positive Home Solutions - Woodworking Vol. 2 with Robert Roskind

First Steps in Woodturning with Chris Stott

Rob Cosman Master Craftsman Series Woodcarving #1

Hand Tool Techniques with David Charlesworth Part-2 - Hand Planing

Workshop of Charles Neil - Fin... Coloring Wood Dyes and Stains

Rough Cut - Woodworking with Tommy Mac - 1,2 Season

David Charlesworth - Hand Tool Techniques Part 1: Plane Sharpening

David Charlesworth - Hand Tool... Precision Shooting Simplified

David Charlesworth - Furniture Making Techniques Five Topics

Workshop of Charles Neil - Fin...- Advanced Coloring Tehcniques

Workshop of Charles Neil - Fin...art 6: Spray Guns and Turbines

Workshop of Charles Neil - Fin... Z Part-8 - Spraying Top Coats

Workshop of Charles Neil - Fin...Part-9 - Hand Applied Finishes

Workshop of Charles Neil - Fin...- Special Finishing Techniques

Building with Logs: A Complete...g - by Allan Mackie, 9 DVD-set

The Woodwright's Shop Season 5 - Episodes 3, 12

The Woodwright's Shop Season 6 - Episodes 10-13

The Woodwright's Shop - Full Season 8: Episodes 1-13

and my other last: Woodworking-posts

General
Complete name :D3. Horse Start.avi
Format : AVI
Format/Info : Audio Video Interleave
File size : 569 MiB
Duration : 47mn 25s
Overall bit rate mode : Variable
Overall bit rate : 1 677 Kbps
Writing application : MEncoder 1.0rc4-4.5.2
Writing library : MPlayer

Video
ID : 0
Format : MPEG-4 Visual
Format profile : Simple@L1
Format settings, BVOP : No
Format settings, QPel : No
Format settings, GMC : No warppoints
Format settings, Matrix : Default (H.263)
Codec ID : FMP4
Duration : 47mn 25s
Bit rate : 1 499 Kbps
Width : 720 pixels
Height : 480 pixels
Display aspect ratio : 3:2
Frame rate : 29.970 fps
Standard : NTSC
Color space : YUV
Chroma subsampling : 4:2:0
Bit depth : 8 bits
Scan type : Progressive
Compression mode : Lossy
Bits/(Pixel*Frame) : 0.145
Stream size : 509 MiB (89%)
Writing library : Lavc52.72.2

Audio
ID : 1
Format : MPEG Audio
Format version : Version 1
Format profile : Layer 3
Mode : Joint stereo
Mode extension : MS Stereo
Codec ID : 55
Codec ID/Hint : MP3
Duration : 47mn 25s
Bit rate mode : Variable
Bit rate : 164 Kbps
Channel(s) : 2 channels
Sampling rate : 48.0 KHz
Compression mode : Lossy
Stream size : 55.5 MiB (10%)
Alignment : Aligned on interleaves
Interleave, duration : 24 ms (0.72 video frame)
Interleave, preload duration : 588 ms
Screenshots

Building with Logs: A Complete Guide to Log Building

Building with Logs: A Complete Guide to Log Building

Building with Logs: A Complete Guide to Log Building

Building with Logs: A Complete Guide to Log Building

Building with Logs: A Complete Guide to Log Building

Building with Logs: A Complete Guide to Log Building

Building with Logs: A Complete Guide to Log Building

✅ Exclusive eLearning Videos ParRus-blogadd to bookmarks

Feel free to contact me PM
when links are dead or want any repost

Building with Logs: A Complete Guide to Log Building