Subcategories

Mountain Biking - Crank It Up

Posted By: ParRus
Mountain Biking - Crank It Up

Mountain Biking - Crank It Up
DVD5 | English | VIDEO_TS | 720 x 576 | MPEG2 ~6744 kbps | 25.000 fps
MP3 | 192 kbps | 48.0 KHz | 2 channels | 01:06:52 | 3.85 GB
Genre: eLearning / Sport, Mountain Bike, Extreme

The new issue of MBUK comes with a brand spanking new free DVD… And it's pretty darn special, even if we do say so ourselves. Crank It Up features over an hour of new footage including action from the National Downhill Champs, NASS, Ollie Fielder's Backyard Jam, Doddy riding the High Action North Shore trails, and top dirt jumpers like Jimmy Pratt and Olly Wilkens. It's absolutely jam-packed with goodness.
Mr Fraser Barsby, top dude at 24seven, is the man responsible for this veritable cornucopia of all that's happening in mountain biking right now.

"We got in real close to the action," says Mr B. "Multi-camera angles to cover all the moves, all-new bike cam footage and a whole load of new techniques were used to really involve the viewer and show what it's ie to ride like a pro.

"By the end of the film you really get to know what it's like to work at MBUK as we follow the guys from dawn till dusk. even into the toilet!

"The special edition of Jump School has Chopper take you step-by-step through backflips and tailwhips, while Elliott from 24Seven shows you hands-on how to fit three piece cranks. If that ain't enough for you, how about sneak previews of all the up and coming bike videos from home and around the world! Miss this DVD and you'll miss a slice of life."

General
Complete name : VTS_05_1.VOB
Format : MPEG-PS
File size : 224 MiB
Duration : 4mn 25s
Overall bit rate mode : Variable
Overall bit rate : 7 077 Kbps

Video
ID : 224 (0xE0)
Format : MPEG Video
Format version : Version 2
Format profile : Main@Main
Format settings, BVOP : Yes
Format settings, Matrix : Custom
Format settings, GOP : M=3, N=12
Duration : 4mn 25s
Bit rate mode : Variable
Bit rate : 6 744 Kbps
Maximum bit rate : 7 700 Kbps
Width : 720 pixels
Height : 576 pixels
Display aspect ratio : 4:3
Frame rate : 25.000 fps
Standard : PAL
Color space : YUV
Chroma subsampling : 4:2:0
Bit depth : 8 bits
Scan type : Interlaced
Scan order : Bottom Field First
Compression mode : Lossy
Bits/(Pixel*Frame) : 0.650
Time code of first frame : 01:00:00:00
Time code source : Group of pictures header
Stream size : 214 MiB (95%)
Color primaries : BT.601 PAL
Transfer characteristics : BT.470 System B, BT.470 System G
Matrix coefficients : BT.601

Audio
ID : 189 (0xBD)-128 (0x80)
Format : AC-3
Format/Info : Audio Coding 3
Mode extension : CM (complete main)
Format settings, Endianness : Big
Muxing mode : DVD-Video
Duration : 4mn 25s
Bit rate mode : Constant
Bit rate : 192 Kbps
Channel(s) : 2 channels
Channel positions : Front: L R
Sampling rate : 48.0 KHz
Bit depth : 16 bits
Compression mode : Lossy
Stream size : 6.08 MiB (3%)

Menu
Screenshots

Mountain Biking - Crank It Up

Mountain Biking - Crank It Up

Mountain Biking - Crank It Up

Exclusive eLearning Videos ParRus-blogadd to bookmarks

Mountain Biking - Crank It Up