Subcategories

Eben Pagan - Digital U – Launch Products Online

Posted By: ParRus
Eben Pagan - Digital U – Launch Products Online

Eben Pagan - Digital U – Launch Products Online
WEBRip | English | MP4 + MP3 + PDF Guides | 960 x 540 | AVC ~751 kbps | 23.976 fps
AAC | 114 Kbps | 44.1 KHz | 2 channels | ~85 hours | 35.51 GB
Genre: eLearning Video / Business, Sales, Marketing

Eben Pagan's Digital U is the only course in the last 2 years that offers his blueprint and tools responsible for creating 10 multi-million companies. Want to know how he does it?
Review of Digital U System

What do you get With DigitalU?

12 blueprint tools and exercises – 6 for creating and 6 for marketing your product

Live coaching classes – 6 live coaching classes with Eben Pagan

6 Modules that cover everything from A to Z

Let's go over the modules quickly

Module 1: Orientation Fast Start
detail overview how it works
mindset for success while having fun
how to be profitable in 90 days

Module 2: Targeting Your Niche
niche selection that is profitable and works for you
how to branch out from your niche in the future
creating your ideal customer avatar

Module 3: Creating Your Online Course
7 powerful frameworks to make great courses
how to create a premium product that is worth it
the psychology behind naming the product

Module 4: Building Your Marketing
learn education-based marketing
get proven marketing templates
turn your story into an asset

Module 5: Launching Your Online Course
counter-intuitive techniques to generate traffic
get new partners to promote you
creating product offer

Module 6: Email Master
set up an email follow up sequence that works
get email templates from Eben
tips and tricks on writing emails
As you can see it's a fairly straightforward course, all you do is:


Create It, Market It, Sell It
Create: From my own experience, and people I've spoken to, many believe this is the hardest part. However, that's not actually true.

You see, everyone, including you, has something that he or she can create a digital product about. I mean anything from cooking to fixing stuff, from being great at video games to being a football player, fishing, woodworking, and the list goes on.

Once you get started with Eben's training, you'll be surprised at how you can make money on almost any passion you have.

Market It: Honestly, I think marketing is harder than actually creating something. You don't really need any special skills that you don't already have to create a product, but marketing you need to learn.

However, Eben has been doing this for about 20 years, so he knows the ins and outs of it. Plus I'm offering a marketing bonus below.

Sell it: Selling is usually the hardest part. Do you ever wonder why bad movies, books, and games sometimes make the most money? While little gems take years to be discovered, or never?

Marketing plays a big role in this, but selling plays even bigger.

Fortunately, it's different with Digital U, as you don't have to do any hard selling. I mean, no going door to door trying to sell, no cold calling/emailing, no begging of friends and family.

With Digital U you'll be creating a product that there is a need for already. For example, you're a dog person? Creating a training guide, especially doing it for a specific breed, will get tons of visitors.

Best part? All of these visitors are already looking for what you're selling. Which means all you have to do is demonstrate it on your page.

Digital U Bonus: Organic Branding

Price: $1,997 or 6 payments of $397 cost
More Info: Salepage

also You can find my other helpful Business-posts
(if old file-links don't show activity, try copy-paste them to the address bar)

General
Complete name : Advanced Product Creation.mp4
Format : MPEG-4
Format profile : Base Media
Codec ID : isom (isom/iso2/avc1/mp41)
File size : 205 MiB
Duration : 33 min 1 s
Overall bit rate mode : Variable
Overall bit rate : 870 kb/s

AppleStoreCatalogID : 0

Video
ID : 1
Format : AVC
Format/Info : Advanced Video Codec
Format profile : Baseline@L1.3
Format settings : 1 Ref Frames
Format settings, CABAC : No
Format settings, RefFrames : 1 frame
Format settings, GOP : M=1, N=12
Codec ID : avc1
Codec ID/Info : Advanced Video Coding
Duration : 33 min 1 s
Bit rate : 751 kb/s
Width : 960 pixels
Height : 540 pixels
Display aspect ratio : 16:9
Frame rate mode : Constant
Frame rate : 23.976 (24000/1001) FPS
Color space : YUV
Chroma subsampling : 4:2:0
Bit depth : 8 bits
Scan type : Progressive
Bits/(Pixel*Frame) : 0.060
Stream size : 177 MiB (86%)
Encoded date : UTC 2019-06-30 18:46:21
Tagged date : UTC 2019-06-30 18:46:21
Menus : 3

Audio
ID : 2
Format : AAC
Format/Info : Advanced Audio Codec
Format profile : LC
Codec ID : mp4a-40-2
Duration : 33 min 1 s
Bit rate mode : Variable
Bit rate : 114 kb/s
Maximum bit rate : 254 kb/s
Channel(s) : 2 channels
Channel positions : Front: L R
Sampling rate : 44.1 kHz
Frame rate : 43.066 FPS (1024 SPF)
Compression mode : Lossy
Stream size : 26.9 MiB (13%)
Language : English
Encoded date : UTC 2019-06-30 18:46:21
Tagged date : UTC 2019-06-30 18:46:21

Menu
ID : 3
Codec ID : text
Duration : 33 min 1 s
Encoded date : UTC 2019-07-11 15:49:06
Tagged date : UTC 2019-07-11 15:49:06
Menu For : 1
00:00:00.000 : Chapter 1
Screenshots

Eben Pagan - Digital U – Launch Products Online

Eben Pagan - Digital U – Launch Products Online

Eben Pagan - Digital U – Launch Products Online

Eben Pagan - Digital U – Launch Products Online

✅ Exclusive eLearning Videos ParRus-blogadd to bookmarks
Feel free to contact me PM
when links are dead or want any repost

Eben Pagan - Digital U – Launch Products Online