Subcategories

Eben Pagan - Traffic School

Posted By: ParRus
Eben Pagan - Traffic School

Eben Pagan - Traffic School
WEBRip | English | MP4 + PDF Guides | 640 x 352 | AVC ~150 kbps | 29.970 fps
AAC | 103 Kbps | 48.0 KHz | 2 channels | 12:20:52 | 1.14 GB
Genre: eLearning Video / Business, Sales, Marketing

My name is Eben Pagan, Over the past 15 years, I've started and grown 10 different products and businesses from zero to over 1 million dollars. 4 of which to over 10 million. Collectively, I've generated over 10,000 customers for my businesses and I've sold over $100 million dollars worth of information products and services online. Now, if you're just getting started in business or you have an existing product or service and you aren't getting enough customers to show up to buy it, then I’ve got something that can really help you out…
Traffic School is an advanced training program, where myself and 9 of the best marketers I know share our most successful strategies for acquiring new customers and traffic online.

If you’d like to know how to attract new customers, leads, or visitors to your business on demand, then this program is made specifically for you.

Together, we’re going to show you how to take control of your traffic for good. We’re going to teach you how to leverage both paid and free strategies for growing your customer base profitably.

We’re going to show you how to rapidly acquire fresh new leads and customers using the biggest ‘traffic taps’ online.

We’re going to give you the power to ‘turn on’ the traffic tap whenever and wherever you need it, so you never run out of new lead flow again.

also You can find my other helpful Business-posts
(if old file-links don't show activity, try copy-paste them to the address bar)

General
Complete name : Mike Koenigs - Video Formula.mp4
Format : MPEG-4
Format profile : Base Media
Codec ID : isom (mp41)
File size : 149 MiB
Duration : 1 h 20 min
Overall bit rate mode : Variable
Overall bit rate : 258 kb/s
Encoded date : UTC 1970-01-01 00:00:00
Tagged date : UTC 1970-01-01 00:00:00

Video
ID : 1
Format : AVC
Format/Info : Advanced Video Codec
Format profile : Baseline@L3
Format settings : 2 Ref Frames
Format settings, CABAC : No
Format settings, RefFrames : 2 frames
Codec ID : avc1
Codec ID/Info : Advanced Video Coding
Duration : 1 h 20 min
Bit rate : 150 kb/s
Width : 640 pixels
Height : 352 pixels
Display aspect ratio : 16:9
Frame rate mode : Constant
Frame rate : 29.970 (30000/1001) FPS
Color space : YUV
Chroma subsampling : 4:2:0
Bit depth : 8 bits
Scan type : Progressive
Bits/(Pixel*Frame) : 0.022
Stream size : 86.4 MiB (58%)
Encoded date : UTC 1970-01-01 00:00:00
Tagged date : UTC 1970-01-01 00:00:00

Audio
ID : 2
Format : AAC
Format/Info : Advanced Audio Codec
Format profile : LC
Codec ID : mp4a-40-2
Duration : 1 h 20 min
Bit rate mode : Variable
Bit rate : 103 kb/s
Channel(s) : 2 channels
Channel positions : Front: L R
Sampling rate : 48.0 kHz
Frame rate : 46.875 FPS (1024 SPF)
Compression mode : Lossy
Stream size : 59.6 MiB (40%)
Encoded date : UTC 1970-01-01 00:00:00
Tagged date : UTC 1970-01-01 00:00:00
Screenshots

Eben Pagan - Traffic School

Eben Pagan - Traffic School

Eben Pagan - Traffic School

Eben Pagan - Traffic School

✅ Exclusive eLearning Videos ParRus-blogadd to bookmarks
Feel free to contact me PM
when links are dead or want any repost

Eben Pagan - Traffic School