Subcategories
Tags
Language
Tags

Coursera - Experimental Genome Science (University of Pennsylvania)

Posted By: ParRus
Coursera - Experimental Genome Science (University of Pennsylvania)

Coursera - Experimental Genome Science (University of Pennsylvania)
WEBRip | English | MP4 + PDF slides | 960 x 540 | AVC ~88.4 kbps | 30 fps
AAC | 118 Kbps | 44.1 KHz | 2 channels | ~13 hours | 1.26 GB
Genre: eLearning Video / Biology & Life Sciences, Genetics

Each of our cells contains nearly identical copies of our genome, which provides instructions that allow us to develop and function. The field of Genomics focuses on the structure and function of genomes and plays a major and increasing role in both medicine and research. This course serves as an introduction to the main laboratory and theoretical aspects of genomics and is divided into themes: genomes, genetics, functional genomics, systems biology, single cell approaches, proteomics, and applications.
We start with the basics, DNA sequencing and the genome project, then move to high throughput sequencing methods and applications. Next we introduce principles of genetics and then apply them in clinical genetics and other large-scale sequencing projects. In the functional genomics unit, we start with RNA expression dynamics, analysis of alternative splicing, epigenomics and ChIP-seq, and metagenomics. Model organisms and forward and reverse genetics screens are then discussed, along with quantitative trait locus (QTL) and eQTL analysis. After that, we introduce integrative and single cell genomics approaches and systems biology. Finally, we conclude by introducing in applying proteomic approaches.

and you can find my other helpful Coursera-posts
(if old file-links don't show activity, try copy-paste them to the address bar)

General
Complete name :6 - 1 - Lecture 20_ Plasmodium Genomics I.mp4
Format : MPEG-4
Format profile : Base Media
Codec ID : isom
File size : 55.1 MiB
Duration : 35mn 49s
Overall bit rate mode : Variable
Overall bit rate : 215 Kbps
Writing application : Lavf53.29.100

Video
ID : 1
Format : AVC
Format/Info : Advanced Video Codec
Format profile : High@L3.1
Format settings, CABAC : Yes
Format settings, ReFrames : 4 frames
Codec ID : avc1
Codec ID/Info : Advanced Video Coding
Duration : 35mn 49s
Bit rate : 88.4 Kbps
Width : 960 pixels
Height : 540 pixels
Display aspect ratio : 16:9
Frame rate mode : Constant
Frame rate : 30.000 fps
Color space : YUV
Chroma subsampling : 4:2:0
Bit depth : 8 bits
Scan type : Progressive
Bits/(Pixel*Frame) : 0.006
Stream size : 22.7 MiB (41%)
Writing library : x264 core 120 r2120 0c7dab9
Encoding settings : cabac=1 / ref=3 / deblock=1:0:0 / analyse=0x3:0x113 / me=hex / subme=7 / psy=1 / psy_rd=1.00:0.00 / mixed_ref=1 / me_range=16 / chroma_me=1 / trellis=1 / 8x8dct=1 / cqm=0 / deadzone=21,11 / fast_pskip=1 / chroma_qp_offset=-2 / threads=12 / sliced_threads=0 / nr=0 / decimate=1 / interlaced=0 / bluray_compat=0 / constrained_intra=0 / bframes=3 / b_pyramid=2 / b_adapt=1 / b_bias=0 / direct=1 / weightb=1 / open_gop=0 / weightp=2 / keyint=250 / keyint_min=25 / scenecut=40 / intra_refresh=0 / rc_lookahead=40 / rc=crf / mbtree=1 / crf=28.0 / qcomp=0.60 / qpmin=0 / qpmax=69 / qpstep=4 / ip_ratio=1.40 / aq=1:1.00

Audio
ID : 2
Format : AAC
Format/Info : Advanced Audio Codec
Format profile : LC
Codec ID : 40
Duration : 35mn 49s
Bit rate mode : Variable
Bit rate : 118 Kbps
Maximum bit rate : 128 Kbps
Channel(s) : 2 channels
Channel positions : Front: L R
Sampling rate : 44.1 KHz
Compression mode : Lossy
Delay relative to video : -2ms
Stream size : 30.3 MiB (55%)
Screenshots

Coursera - Experimental Genome Science (University of Pennsylvania)

Coursera - Experimental Genome Science (University of Pennsylvania)

Coursera - Experimental Genome Science (University of Pennsylvania)

Coursera - Experimental Genome Science (University of Pennsylvania)

Coursera - Experimental Genome Science (University of Pennsylvania)

Coursera - Experimental Genome Science (University of Pennsylvania)

Coursera - Experimental Genome Science (University of Pennsylvania)

Exclusive eLearning Videos ParRus-blogadd to bookmarks

Coursera - Experimental Genome Science (University of Pennsylvania)