Subcategories

FrontendMaster - Backbone.js (with Introduction to Testing)

Posted By: ParRus
FrontendMaster - Backbone.js (with Introduction to Testing)

FrontendMaster - Backbone.js (with Introduction to Testing)
WEBRip | English | MP4 | 1920 x 1080 | AVC ~1994 kbps | 29.970 fps
AAC | 192 Kbps | 48.0 KHz | 2 channels | 05:19:05 | 4.88 GB
Genre: eLearning Video / Development, Programming

Non-trivial web applications demand moving beyond jQuery one-offs into testable, single-responsibility code architectures. Sam shows us Backbone’s lightweight approach to building client-side MVC applications and builds in unit tests with Mocha and Sinon.JS.
Content:

1. Introduction.mp4
2. Backbone Dependencies- jQuery.mp4
3. jQuery Review.mp4
4. Backbone Dependencies- Underscore.mp4
5. Single Page Applications.mp4
6. Philosophy, usage, and convention.mp4
7. Core Backbone Components.mp4
8. Prototypal Inheritance and Extension.mp4
9. Comments Project Setup.mp4
10. Comments Model, Collection and View.mp4
11. Comments Application View.mp4
12. Summarizing the functionality.mp4
13. Comments Application Audience Questions.mp4
14. Comments Project Setup and Dependencies.mp4
15. Advanced Feature Demonstration.mp4
16. Code Walkthrough.mp4
17. Additional Code Features.mp4
18. Models In-Depth.mp4
19. Model.parse & Model.toJSON.mp4
20. Defining Models.mp4
21. Using RESTful APIs.mp4
22. Live Coding- REST APIs.mp4
23. Persona Questions.mp4
24. Views & Templates.mp4
25. Rendering Templates.mp4
26. DOM Events and Memory Management.mp4
27. Responsible Rendering.mp4
28. Views Audience Questions.mp4
29. Collections.mp4
30. Retrieving Model Data.mp4
31. Syncing Data with the Server.mp4
32. Routing Background.mp4
33. Backbone Router.mp4
34. Router Code Walkthrough.mp4
35. Backbone API Project Introduction.mp4
36. Testing in Backbone.mp4
37. Writing Tests.mp4
38. Using Sinon.js.mp4
39. Testing Event Handlers.mp4
40. Testing Views.mp4
41. Final Q & A.mp4

also You can watch my other last: Programming-posts

General
Complete name : 23. Persona Questions.mp4
Format : MPEG-4
Format profile : Base Media / Version 2
Codec ID : mp42
File size : 16.2 MiB
Duration : 1mn 1s
Overall bit rate mode : Variable
Overall bit rate : 2 194 Kbps
Encoded date : UTC 2013-10-05 22:53:04
Tagged date : UTC 2013-10-05 22:53:05
©TIM : 04;41;02;02
©TSC : 30000
©TSZ : 1001

Video
ID : 1
Format : AVC
Format/Info : Advanced Video Codec
Format profile : Main@L4.2
Format settings, CABAC : Yes
Format settings, ReFrames : 3 frames
Codec ID : avc1
Codec ID/Info : Advanced Video Coding
Duration : 1mn 1s
Source duration : 1mn 1s
Bit rate : 1 994 Kbps
Width : 1 920 pixels
Height : 1 080 pixels
Display aspect ratio : 16:9
Frame rate mode : Variable
Frame rate : 29.970 fps
Minimum frame rate : 29.970 fps
Maximum frame rate : 30.000 fps
Standard : NTSC
Color space : YUV
Chroma subsampling : 4:2:0
Bit depth : 8 bits
Scan type : Progressive
Bits/(Pixel*Frame) : 0.032
Stream size : 14.7 MiB (91%)
Source stream size : 14.7 MiB (91%)
Language : English
Encoded date : UTC 2013-10-05 22:53:04
Tagged date : UTC 2013-10-05 22:53:04
Color range : Limited
mdhd_Duration : 61795

Audio
ID : 2
Format : AAC
Format/Info : Advanced Audio Codec
Format profile : LC
Codec ID : 40
Duration : 1mn 1s
Source duration : 1mn 1s
Bit rate mode : Variable
Bit rate : 192 Kbps
Maximum bit rate : 247 Kbps
Channel(s) : 2 channels
Channel positions : Front: L R
Sampling rate : 48.0 KHz
Compression mode : Lossy
Stream size : 1.40 MiB (9%)
Source stream size : 1.40 MiB (9%)
Language : English
Encoded date : UTC 2013-10-05 22:53:04
Tagged date : UTC 2013-10-05 22:53:04
mdhd_Duration : 61845
Screenshots

FrontendMaster - Backbone.js (with Introduction to Testing)

FrontendMaster - Backbone.js (with Introduction to Testing)

FrontendMaster - Backbone.js (with Introduction to Testing)

FrontendMaster - Backbone.js (with Introduction to Testing)

FrontendMaster - Backbone.js (with Introduction to Testing)

Exclusive eLearning Videos ParRus-blogadd to bookmarks

Feel free to contact me PM
when links are dead or want any repost

FrontendMaster - Backbone.js (with Introduction to Testing)