Subcategories

Graham Stephan – The Real Estate and Wealth Investing Blueprint

Posted By: ParRus
Graham Stephan – The Real Estate and Wealth Investing Blueprint

Graham Stephan – The Real Estate and Wealth Investing Blueprint
WEBRip | English | MP4 | 640 x 360 | AVC ~341 kbps | 29.970 fps
AAC | 91.1 Kbps | 44.1 KHz | 2 channels | ~9 hours | 2.29 GB
Genre: eLearning Video / Business, Sales, Marketing

The Ultimate Retirement Strategy – The BEST STRATEGIES to grow your Wealth through Real Estate
In late 2011, I bought my first property. It was $ 59,500 . . . and at the time , it was the biggest investment had ever made. I was absolutely Scared, I doubted myself, I was convinced I made the Wrong choice. But two months later, I bought another. And a month later, I bought another. And now, nearly 8 years later – Own 6 properties with a total value over $ 4 Million Dollars. And those properties now generate enough money to pay for ALL of my living expenses. Looking back, buying my first investment property was the best decision I ever made .
This is my complete blueprint to building your Wealth in real estate, with every single topic I could possibly think of that has been essential to my success. Everything from finding the right deal, negotiating the best price, finding contractors, Screening tenants . . . everything. It’s all here.

This is also the full video conference filmed by a professional videography crew of the Building Wealth 2019 Conference with Jeremy ( From Financial Education Youtube Channel ) and Graham Stephan ( Real Estate Investing Millionaire )
This Conference Was an all day event between myself and Jeremy , who runs the YouTube channel Financial Education .

also You can find my other helpful Business-posts
(if old file-links don't show activity, try copy-paste them to the address bar)

General
Complete name : How to find the BEST tenant - The Real Estate Agent Academy.mp4
Format : MPEG-4
Format profile : Base Media
Codec ID : isom (isom/iso2/avc1/mp41)
File size : 39.5 MiB
Duration : 12 min 38 s
Overall bit rate mode : Variable
Overall bit rate : 437 kb/s
Encoded date : UTC 2019-03-15 15:31:09
Tagged date : UTC 2019-03-15 15:31:09
Writing application : Lavf51.12.1
IsTruncated : Yes

Video
ID : 1
Format : AVC
Format/Info : Advanced Video Codec
Format profile : High@L3
Format settings : CABAC / 1 Ref Frames
Format settings, CABAC : Yes
Format settings, RefFrames : 1 frame
Format settings, GOP : M=1, N=12
Codec ID : avc1
Codec ID/Info : Advanced Video Coding
Duration : 12 min 38 s
Bit rate mode : Variable
Bit rate : 341 kb/s
Width : 640 pixels
Height : 360 pixels
Display aspect ratio : 16:9
Frame rate mode : Constant
Frame rate : 29.970 (30000/1001) FPS
Color space : RGB
Chroma subsampling : 4:2:0
Bit depth : 8 bits
Scan type : Progressive
Bits/(Pixel*Frame) : 0.049
Stream size : 30.8 MiB (78%)
Encoded date : UTC 2019-03-15 15:31:09
Tagged date : UTC 2019-03-15 15:31:09
Color range : Limited
Matrix coefficients : Identity

Audio
ID : 2
Format : AAC
Format/Info : Advanced Audio Codec
Format profile : LC
Codec ID : mp4a-40-2
Duration : 12 min 38 s
Bit rate mode : Variable
Bit rate : 91.1 kb/s
Channel(s) : 2 channels
Channel positions : Front: L R
Sampling rate : 44.1 kHz
Frame rate : 43.066 FPS (1024 SPF)
Compression mode : Lossy
Stream size : 8.24 MiB (21%)
Language : English
Encoded date : UTC 2019-03-15 15:31:09
Tagged date : UTC 2019-03-15 15:31:09
Screenshots

Graham Stephan – The Real Estate and Wealth Investing Blueprint

Graham Stephan – The Real Estate and Wealth Investing Blueprint

Graham Stephan – The Real Estate and Wealth Investing Blueprint

Graham Stephan – The Real Estate and Wealth Investing Blueprint

✅ Exclusive eLearning Videos ParRus-blogadd to bookmarks

Feel free to contact me PM
when links are dead or want any repost

Graham Stephan – The Real Estate and Wealth Investing Blueprint