Subcategories

Eben Pagan - Guru Home Study Course

Posted By: ParRus
Eben Pagan - Guru Home Study Course

Eben Pagan - Guru Home Study Course
WEBRip | English | FLV + PDF Guides | 640 x 360 | VP6 ~300 kbps | 30 fps
MP3 | 128 Kbps | 44.1 KHz | 1 channel | ~50 hours | 11.9 GB
Genre: eLearning Video / Business, Sales, Marketing

How To Stop Struggling To Make Money Online And Attract A Steady Stream Of High-Paying Clients Learn exactly how the top coaches and top consultants in the world create information products that can be sold online for high prices to an unlimited audience, 24 hours a day, 7 days a week.
Without EACH Of These 3 Key Elements
Your Online Business WILL Fail…

I’ve been teaching business and marketing to people around the world for over 10 years and the one thing I’ve seen consistently is that just having the right information product isn’t enough to succeed.

I discovered this in my own business as well, with a LOT of trial and error (and thousands of dollars spent).

Everything I’m about to share with you comes from the perspective of someone who created 50+ Information Products from scratch that have made my business millions of dollars.

And this information that I’m about to teach you comes from our 6 to 12 thousand dollar a year coaching program where I coach authors, speakers, coaches, entrepreneurs and we teach them how to grow successful information product publishing businesses.

There are actually 3 key pillars of a successful information product publishing business.

There’s your content pillar, there’s your conversion pillar and there’s your customer pillar.

1) Content Pillar

This is your products. It’s all of your videos, your audios, it’s the articles that you write. In other words, the content of the materials that you teach.

2) Conversion Pillar

Your conversion is all the spots in your business where you actually ask someone to take action. It’s where they opt-in and they convert on your landing page and they buy something to become a customer.

3) Customers

You have to attract customers and get them to come to you in the first place.

And if you don’t master each of these areas… Well, good luck

This is the essence of this training.

also You can find my other helpful Business-posts
(if old file-links don't show activity, try copy-paste them to the address bar)

General
Complete name : Guru Home Study Course - Content Summit - Session 03-02.flv
Format : Flash Video
File size : 119 MiB
Duration : 35 min 12 s
Overall bit rate : 474 kb/s
Encoded date : 2009-02- 9 21:05:31

Video
Format : VP6
Codec ID : 4
Duration : 35 min 12 s
Bit rate : 300 kb/s
Width : 640 pixels
Height : 360 pixels
Display aspect ratio : 16:9
Frame rate mode : Constant
Frame rate : 30.000 FPS
Bit depth : 8 bits
Bits/(Pixel*Frame) : 0.043
Stream size : 75.5 MiB (63%)

Audio
Format : MPEG Audio
Format version : Version 1
Format profile : Layer 3
Codec ID : 2
Codec ID/Hint : MP3
Duration : 35 min 12 s
Bit rate mode : Constant
Bit rate : 128 kb/s
Channel(s) : 1 channel
Sampling rate : 44.1 kHz
Compression mode : Lossy
Stream size : 32.2 MiB (27%)
Writing library : LAME3.96.1
Screenshots

Eben Pagan - Guru Home Study Course

Eben Pagan - Guru Home Study Course

Eben Pagan - Guru Home Study Course

Eben Pagan - Guru Home Study Course

Eben Pagan - Guru Home Study Course

✅ Exclusive eLearning Videos ParRus-blogadd to bookmarks
Feel free to contact me PM
when links are dead or want any repost

Eben Pagan - Guru Home Study Course