Subcategories

Eben Pagan - Guru Mastermind (Complete Weeks 1-16)

Posted By: ParRus
Eben Pagan - Guru Mastermind (Complete Weeks 1-16)

Eben Pagan - Guru Mastermind
WEBRip | English | FLV + MP3 + PDF Guides | 640 x 480 | AVC ~132 kbps | 3 fps
AAC | 96 Kbps | 22.05 KHz | 1 channel | 47:31:05 | 10.72 GB
Genre: eLearning Video / Business, Marketing, Net: E-Commerce

In the Guru Mastermind Course, Eben Pagan takes everything he's learned from his $ 20,000,000 a year online information business and teaches members how to do the same.
Here's someone's summary of the course:

If you want to learn how to create information products the right way, you need to do it like other Internet marketing Gurus because they earn millions on the Internet.

I learned a lot from the Guru Mastermind videos, and I am going to give you the 3 pillars of any ebook business on the Internet.

Before we start, I want to give you a big secret that almost nobody tell.

Are you ready for the truth?

You are not going to be rich online selling or promoting a $47 ebook. You need to create a high converting sales funnel to make money on the backend.

Now that you know that, let's start on the right foundations.

The 3 Pillar of Any Ebook Business

Guru Strategy #1: The money is in the lead

Many beginners fail online because they send direct traffic to their landing page and ignore the fact that 98% of their visitors will never buy from the first time.

On the other hand, smart marketers know that they need to capture the name and email address of their potential customers.

Then, they will send them more content, and even free chapters of their ebook to close the sale.

Guru Strategy #2: Upsell

Immediately after capturing a lead, you want to present a new offer to any lead who enter into your sales funnel. There is an art to do this without upsetting your customers.

Guru Strategy #3: Backend

This is where the real money is in the ebook business.

In fact, your ebook is only a lead generator, and you may even lose money on advertising. It doesn't matter since your goal is to sell higher priced items.

and You can watch my other last: Business-posts

General
Complete name : Guru Mastermind - Week 10 - Using Affiliates through Clickbank.flv
Format : Flash Video
File size : 25.3 MiB
Duration : 14mn 19s
Overall bit rate : 246 Kbps
Encoded date : 2008-06-10 20:14:14

Video
Format : VP6
Codec ID : 4
Duration : 14mn 19s
Bit rate : 132 Kbps
Width : 640 pixels
Height : 480 pixels
Display aspect ratio : 4:3
Frame rate mode : Constant
Frame rate : 3.000 fps
Bit depth : 8 bits
Bits/(Pixel*Frame) : 0.143
Stream size : 13.5 MiB (53%)

Audio
Format : MPEG Audio
Format version : Version 2
Format profile : Layer 3
Codec ID : 2
Codec ID/Hint : MP3
Duration : 14mn 19s
Bit rate mode : Constant
Bit rate : 96.0 Kbps
Channel(s) : 1 channel
Sampling rate : 22.05 KHz
Compression mode : Lossy
Stream size : 9.84 MiB (39%)
Writing library :
Screenshots

Eben Pagan - Guru Mastermind (Complete Weeks 1-16)

Eben Pagan - Guru Mastermind (Complete Weeks 1-16)

Eben Pagan - Guru Mastermind (Complete Weeks 1-16)

Exclusive eLearning Videos ParRus-blogadd to bookmarks

Eben Pagan - Guru Mastermind (Complete Weeks 1-16)