Tags
Language
Tags

Bob Proctor - How to Think & Grow Rich Live Stream

Posted By: ParRus
Bob Proctor - How to Think & Grow Rich Live Stream

Bob Proctor - How to Think & Grow Rich Live Stream
WEBRip | English | FLV + PDF Guides | 768 x 432 | AVC ~397 kbps | 23.976 fps
AAC | 125 Kbps | 44.1 KHz | 2 channels | ~30 hours | 7.26 GB
Genre: eLearning Video / Business, Sales, Marketing

Drawing from 45 years in the area of thinking, reason, the will, memory, intuition and imagination, Bob Proctor talks you through how to realise your inner-millionaire.
As a speaker, author, consultant, coach, and mentor, BOB PROCTOR works with business entities and individuals around the world, instilling within them not only the mental foundations of success and the motivation to achieve, but also the actionable strategies that will empower them to grow, improve, and thrive in today's ever-changing world.

also You can find my other helpful Business-posts
(if old file-links don't show activity, try copy-paste them to the address bar)

General
Complete name : Sunday, October 25th Pt1.flv
Format : Flash Video
File size : 1.60 GiB
Duration : 7 h 1 min
Overall bit rate mode : Variable
Overall bit rate : 544 kb/s

Video
Format : AVC
Format/Info : Advanced Video Codec
Format profile : Main@L3
Format settings : CABAC / 1 Ref Frames
Format settings, CABAC : Yes
Format settings, RefFrames : 1 frame
Codec ID : 7
Duration : 7 h 1 min
Bit rate mode : Variable
Bit rate : 397 kb/s
Maximum bit rate : 705 kb/s
Width : 768 pixels
Height : 432 pixels
Display aspect ratio : 16:9
Frame rate mode : Constant
Frame rate : 23.976 (24000/1001) FPS
Color space : YUV
Chroma subsampling : 4:2:0
Bit depth : 8 bits
Scan type : Progressive
Bits/(Pixel*Frame) : 0.050
Stream size : 1.17 GiB (73%)

Audio
Format : AAC
Format/Info : Advanced Audio Codec
Format profile : LC
Codec ID : 10-2
Duration : 7 h 1 min
Bit rate : 125 kb/s
Channel(s) : 2 channels
Channel positions : Front: L R
Sampling rate : 44.1 kHz
Frame rate : 43.066 FPS (1024 SPF)
Compression mode : Lossy
Stream size : 377 MiB (23%)
Screenshots

Bob Proctor - How to Think & Grow Rich Live Stream

Bob Proctor - How to Think & Grow Rich Live Stream

Bob Proctor - How to Think & Grow Rich Live Stream

Bob Proctor - How to Think & Grow Rich Live Stream

Bob Proctor - How to Think & Grow Rich Live Stream

Bob Proctor - How to Think & Grow Rich Live Stream

✅ Exclusive eLearning Videos ParRus-blogadd to bookmarks
Feel free to contact me PM
when links are dead or want any repost

Bob Proctor - How to Think & Grow Rich Live Stream