Tags
Language
Tags

Kathleen Skott-Myhre - Hypnosis and Hypnotherapy For Children

Posted By: ParRus
Kathleen Skott-Myhre - Hypnosis and Hypnotherapy For Children

Kathleen Skott-Myhre - Hypnosis and Hypnotherapy For Children
2xDVDRip | AVI | English | 720 x 480 | XviD ~716 kbps | 29.970 fps
MP3 ~192 Kbps | 44.1 KHz | 2 channels | 01:58:08 | 1.59 GB
Genre: eLearning Video / Psychology and Behavior, Hypnosis, NLP

Kathleen is a professional hypnotherapist who specializes in working with children. I know she is extremely good because she has worked with children at our center with astounding results. She recently moved to Canada with her husband who took a teaching position at a university there. Our loss! Fortunately before she left, she produced a great video recording of a course she taught on using hypnosis with children. Enjoy and take a look at her video program.
Hypnosis Training by Kathleen Skott-Myhre, MA, CH
Mrs. Skott-Myhre has a Masters Degree in Counseling Psychology and is an NGH- National Guild of Hypnotherapists, Certified Hypnotherapist.

What you get in this 2 DVD package

Now you can successfully help children. Expand your practice by helping children. Children are easier to hypnotize than adults.
Ms. Skott-Myhre will teach you:
• When to Get a Doctor's Referral to Work with Children
• How to Prepare Children for Hypnosis
• How to Induce Hypnosis in Children
• How to Give Children Hypnotic Suggestions
• How to Use 5-PATH® with Children
• What Parents Need to Know to Make Hypnotherapy Work
• What Scripts to Use for Specific Issues for Children
• Using Post-Hypnotic Suggestions for Children
• Letting Children Communicate through Pictures
• Number of Session and How Long they Should Be
• Over Two Hours of Instruction.
• Two DVDs
• Scripts
• Recommended Reading
• Information about 5-PATH®

There's more!
On this two video hypnosis training set Kathleen Skott-Myhre touches upon all of the following topics and go into more depth on the essential points of working with children.
• The Developmental Phases that Children Go Through
• Age Appropriate Language for the Different Stages
• Using Stories and Fantasy to Give Children Suggestions
• Using Stories to Induce Trance and Make Suggestions
• Using Rehearsal Fantasy for Change
• Teaching Parents to Use Suggestion
• How to Prepare Children for Hypnosis
• How to Conduct the Pre-Hypnosis Interview

also You can find my other helpful Hypnosis-posts
(if old file-links don't show activity, try copy-paste them to the address bar)

General
Complete name : Kathleen Skott-Myhre - Hypnosis with Children-Disk 1.avi
Format : AVI
Format/Info : Audio Video Interleave
File size : 303 MiB
Duration : 46mn 5s
Overall bit rate : 920 Kbps

Video
ID : 0
Format : MPEG-4 Visual
Format profile : Advanced Simple@L5
Format settings, BVOP : 2
Format settings, QPel : No
Format settings, GMC : No warppoints
Format settings, Matrix : Default (H.263)
Muxing mode : Packed bitstream
Codec ID : XVID
Codec ID/Hint : XviD
Duration : 46mn 5s
Bit rate : 716 Kbps
Width : 720 pixels
Height : 480 pixels
Display aspect ratio : 3:2
Frame rate : 29.970 fps
Standard : NTSC
Color space : YUV
Chroma subsampling : 4:2:0
Bit depth : 8 bits
Scan type : Progressive
Compression mode : Lossy
Bits/(Pixel*Frame) : 0.069
Stream size : 236 MiB (78%)
Writing library : XviD 1.2.0.dev45 (UTC 2006-07-10)

Audio
ID : 1
Format : MPEG Audio
Format version : Version 1
Format profile : Layer 3
Codec ID : 55
Codec ID/Hint : MP3
Duration : 46mn 5s
Bit rate mode : Constant
Bit rate : 192 Kbps
Channel(s) : 2 channels
Sampling rate : 44.1 KHz
Compression mode : Lossy
Delay relative to video : 26ms
Stream size : 63.3 MiB (21%)
Alignment : Split accross interleaves
Interleave, duration : 33 ms (1.00 video frame)
Title : Audio Stream

Screenshots

Kathleen Skott-Myhre - Hypnosis and Hypnotherapy For Children

Kathleen Skott-Myhre - Hypnosis and Hypnotherapy For Children

Kathleen Skott-Myhre - Hypnosis and Hypnotherapy For Children

Kathleen Skott-Myhre - Hypnosis and Hypnotherapy For Children

✅ Exclusive eLearning Videos ParRus-blogadd to bookmarks
Feel free to contact me PM
when links are dead or want any repost

Kathleen Skott-Myhre - Hypnosis and Hypnotherapy For Children