Tags
Language
Tags

JavaScript Simplified – Premium Package (2021)

Posted By: ParRus
JavaScript Simplified – Premium Package (2021)

JavaScript Simplified – Premium Package
(Beginner + Advanced + Bonus Projects + Interviews)
WEBRip | English | MP4 | 1920 x 1080 | AVC ~565 Kbps | 60 fps
AAC | 128 Kbps | 44.1 KHz | 2 channels | Subs: English (.srt) | ~64 hours | 16.3 GB
Genre: eLearning Video / Development, JavaScript

Become A JavaScript Developer Learn how to think like a developer and build any project you can dream of by taking action instead of just following along with tutorials.
This is not your typical JavaScript course. This is everything you need to become a JavaScript developer.
Originally when I was creating this course I was planning to just explain all the complex topics of JavaScript. As I was building the course, though, I decided to also explain how to connect all these JavaScript concepts in a way no other course has before.
This has resulted in a massive amount of content with the sole purpose of making you into the best JavaScript developer possible.

Beginner Course
This course covers every single important JavaScript concept that you need to understand in order to become a JavaScript developer and it shows you how to connect them.
This can take you from literally no programming experience all the way to a proficient JavaScript developer. Even if you already have JavaScript knowledge, this course is perfect for helping you connect all the pieces together.
While 13 hours may not seem like a lot if you are used to long Udemy courses, I can assure you this course is packed with information. Each minute is as condensed as possible with knowledge, projects, and exercises which means not a single second of your time with the course is wasted.
Also, if you plan to get through this course in only 13 hours, good luck. With all the projects and exercises in this course it will easily take you over a month to get through everything, and that is if you work on the course every single day!

Advanced Course
Once you become a proficient JavaScript developer then it is time to start diving into the advanced JavaScript ecosystem.
This course will take you from junior to mid-level developer with just under 14 hours of content spread across 65 videos and 9 modules.
This course covers not only advanced JavaScript features, but more importantly covers concepts like security, testing, and how to write clean code.

Countless Exercises
In order to learn JavaScript you must practice a lot! That is why in JavaScript Simplified there are tons of exercises throughout nearly every video in the course.
Not a single concept is introduced without specific exercises also being introduced with it. These exercises vary drastically in scale, from simple commands to full projects, but they all serve the same purpose. Teaching you how to connect JavaScript concepts.
These exercises are what separate JavaScript Simplified from other JavaScript courses and ensures that you learn not only JavaScript, but also how to think like a developer.

Multiple Projects
Learning how to connect JavaScript concepts is the only way to become a JavaScript developer and one of the best ways to do that is through projects.
JavaScript Simplified includes tons of projects of various difficulty and scale which are perfectly crafted to help you slowly build up your JavaScript skills without overwhelming you.
There are never more than a few concepts introduced at a time in between projects. This ensures you are able to fully comprehend each concept and how to connect it to other concepts.
This course also includes 6 large bonus projects that combine together all the concepts in this course. These projects are perfect for practicing your JavaScript skills and are also great additions to your resume. Best of all, these projects are crafted with specific ways you can build upon them which will help further deepen your project building skills.

Interviews
Four interviews with successful self-taught developers on how to land your first job.

Tips For Landing A Job
Landing your first job as a web developer is really hard and being self-taught doesn't make it any easier. That is why I interviewed incredible developers like Danny Thompson, and Eddie Jaoude to figure out how they landed their first developer jobs.
These talks cover so many different tips and tricks that you can use to get yourself into more interviews and successfully ace those interviews. The topics we cover will truly change the way you look at applying for jobs.

also You can find my other useful: Development-posts

General
Complete name : 15 - Minesweeper Project.mp4
Format : MPEG-4
Format profile : Base Media
Codec ID : isom (isom/iso2/avc1/mp41)
File size : 219 MiB
Duration : 43 min 18 s
Overall bit rate : 706 kb/s
Writing application : Lavf58.45.100

Video
ID : 1
Format : AVC
Format/Info : Advanced Video Codec
Format profile : High@L4.2
Format settings : CABAC / 4 Ref Frames
Format settings, CABAC : Yes
Format settings, RefFrames : 4 frames
Codec ID : avc1
Codec ID/Info : Advanced Video Coding
Duration : 43 min 18 s
Bit rate : 565 kb/s
Width : 1 920 pixels
Height : 1 080 pixels
Display aspect ratio : 16:9
Frame rate mode : Constant
Frame rate : 60.000 FPS
Color space : YUV
Chroma subsampling : 4:2:0
Bit depth : 8 bits
Scan type : Progressive
Bits/(Pixel*Frame) : 0.005
Stream size : 175 MiB (80%)
Writing library : x264 core 157
Encoding settings : cabac=1 / ref=4 / deblock=1:0:0 / analyse=0x3:0x113 / me=umh / subme=8 / psy=1 / psy_rd=1.00:0.00 / mixed_ref=1 / me_range=16 / chroma_me=1 / trellis=1 / 8x8dct=1 / cqm=0 / deadzone=21,11 / fast_pskip=1 / chroma_qp_offset=-2 / threads=34 / lookahead_threads=5 / sliced_threads=0 / nr=0 / decimate=1 / interlaced=0 / bluray_compat=0 / constrained_intra=0 / bframes=3 / b_pyramid=2 / b_adapt=2 / b_bias=0 / direct=3 / weightb=1 / open_gop=0 / weightp=2 / keyint=180 / keyint_min=91 / scenecut=0 / intra_refresh=0 / rc_lookahead=40 / rc=crf / mbtree=1 / crf=23.0 / qcomp=0.60 / qpmin=10 / qpmax=51 / qpstep=4 / vbv_maxrate=5625 / vbv_bufsize=5625 / crf_max=0.0 / nal_hrd=none / filler=0 / ip_ratio=1.41 / aq=1:1.00
Color range : Limited
Color primaries : BT.709

Audio
ID : 2
Format : AAC
Format/Info : Advanced Audio Codec
Format profile : LC
Codec ID : mp4a-40-2
Duration : 43 min 18 s
Duration_LastFrame : -22 ms
Bit rate mode : Constant
Bit rate : 128 kb/s
Channel(s) : 2 channels
Channel positions : Front: L R
Sampling rate : 44.1 kHz
Frame rate : 43.066 FPS (1024 SPF)
Compression mode : Lossy
Stream size : 39.7 MiB (18%)
Default : Yes
Alternate group : 1

Screenshots

JavaScript Simplified – Premium Package (2021)

JavaScript Simplified – Premium Package (2021)

JavaScript Simplified – Premium Package (2021)

JavaScript Simplified – Premium Package (2021)

Exclusive eLearning Videos ParRus-blogadd to bookmarks

JavaScript Simplified – Premium Package (2021)