Tags
Language
Tags

Jordan Belfort Course Bundle

Posted By: ParRus
Jordan Belfort Course Bundle

Jordan Belfort Course Bundle
WEBRip | English | MP4 + PDF Guides | 1280 x 720 | AVC ~1571 kbps | 25 fps
AAC | 158 Kbps | 32.0 KHz | 2 channels | ~21 hours | 15.3 GB
Genre: eLearning Video / Business, Sales, Marketing, Self Improvement, Psychology

Jordan's Straight Line Courses plus his Sales Psychology course which is no longer sold.
Includes:

Sales Psychology
Straight Line Marketing
Straight Line Persuasion
Script Builder

also You can find my other helpful Business-posts
(if old file-links don't show activity, try copy-paste them to the address bar)

General
Complete name : 3 - Wrap Your Package.mp4
Format : MPEG-4
Format profile : Base Media / Version 2
Codec ID : mp42 (mp42/mp41/isom/avc1)
File size : 33.1 MiB
Duration : 2 min 40 s
Overall bit rate mode : Variable
Overall bit rate : 1 731 kb/s
Encoded date : UTC 2013-10-06 08:20:38
Tagged date : UTC 2013-10-06 08:20:38

Video
ID : 1
Format : AVC
Format/Info : Advanced Video Codec
Format profile : High@L3.1
Format settings : CABAC / 4 Ref Frames
Format settings, CABAC : Yes
Format settings, RefFrames : 4 frames
Codec ID : avc1
Codec ID/Info : Advanced Video Coding
Duration : 2 min 40 s
Bit rate : 1 571 kb/s
Width : 1 280 pixels
Height : 720 pixels
Display aspect ratio : 16:9
Frame rate mode : Constant
Frame rate : 25.000 FPS
Color space : YUV
Chroma subsampling : 4:2:0
Bit depth : 8 bits
Scan type : Progressive
Bits/(Pixel*Frame) : 0.068
Stream size : 30.0 MiB (91%)
Writing library : x264 core 129 r2245 bc13772
Encoding settings : cabac=1 / ref=3 / deblock=1:0:0 / analyse=0x3:0x113 / me=hex / subme=7 / psy=1 / psy_rd=1.00:0.00 / mixed_ref=1 / me_range=16 / chroma_me=1 / trellis=1 / 8x8dct=1 / cqm=0 / deadzone=21,11 / fast_pskip=1 / chroma_qp_offset=-2 / threads=12 / lookahead_threads=2 / sliced_threads=0 / nr=0 / decimate=1 / interlaced=0 / bluray_compat=0 / constrained_intra=0 / bframes=3 / b_pyramid=2 / b_adapt=1 / b_bias=0 / direct=1 / weightb=1 / open_gop=0 / weightp=2 / keyint=75 / keyint_min=25 / scenecut=40 / intra_refresh=0 / rc_lookahead=40 / rc=2pass / mbtree=1 / bitrate=1571 / ratetol=1.0 / qcomp=0.60 / qpmin=5 / qpmax=69 / qpstep=4 / cplxblur=20.0 / qblur=0.5 / vbv_maxrate=3750 / vbv_bufsize=12500 / nal_hrd=none / ip_ratio=1.40 / aq=1:1.00
Encoded date : UTC 2013-10-06 08:20:38
Tagged date : UTC 2013-10-06 08:20:38

Audio
ID : 2
Format : AAC
Format/Info : Advanced Audio Codec
Format profile : LC
Codec ID : mp4a-40-2
Duration : 2 min 40 s
Source duration : 2 min 40 s
Bit rate mode : Variable
Bit rate : 158 kb/s
Channel(s) : 2 channels
Channel positions : Front: L R
Sampling rate : 32.0 kHz
Frame rate : 31.250 FPS (1024 SPF)
Compression mode : Lossy
Stream size : 3.02 MiB (9%)
Source stream size : 3.02 MiB (9%)
Encoded date : UTC 2013-10-06 08:20:38
Tagged date : UTC 2013-10-06 08:20:38
Screenshots

Jordan Belfort Course Bundle

Jordan Belfort Course Bundle

Jordan Belfort Course Bundle

Jordan Belfort Course Bundle

✅ Exclusive eLearning Videos ParRus-blogadd to bookmarks
Feel free to contact me PM
when links are dead or want any repost

Jordan Belfort Course Bundle