Tags
Language
Tags

Jordan Mackey - Make Money On Youtube Made Easy 2019

Posted By: ParRus
Jordan Mackey - Make Money On Youtube Made Easy 2019

Jordan Mackey - Make Money On Youtube Made Easy 2019
WEBRip | English | MP4 | 1920 x 1080 | AVC ~1729 Kbps | 29.970 fps
AAC | 128 Kbps | 44.1 KHz | 2 channels | ~6 hours | 5.89 GB
Genre: eLearning Video / Business, Sales, Marketing

In this unique course I will take you step-by-step using the EXACT blueprint and secrets I used to generate this income on Youtube. I will teach you the essential secret tricks I have used to get over $100,000 on Youtube using videos that YOU DON’T HAVE TO MAKE! You don’t have to have a camera, a microphone, or make your own videos. There is no other course like this and you will not find this information anywhere else.
I will serve as your over-the-shoulder guide through the entire process and give you secrets such as how to choose a successful niche, how to download, upload, and monetize videos LEGALLY that do not have copyright licenses, secret tips to increase views and watch time, how to create unlimited youtube channels using unlimited phone numbers, how to gain additional views and subscribers easily, how to avoid getting your channel deleted or getting copyright strikes, how to get rid of copyright strikes, how to get past the youtube demonitization bots, how to get past the monetization review process quickly and easily, how to get your videos ranking on the search results, how to effectively use SEO strategies, and a secret trick to making more money on youtube than ANYONE else is able to generate doing one simple secret that will increase your revenue times 10. This will also work in ANY COUNTRY IN THE WORLD, so no matter where you live you can make money on Youtube.

I will also teach you a VERY EASY way you can get to the monetization review process within two weeks with just ONE video! This means you will be able to have a monetized channel to start making money within just a couple weeks, with barely any work involved!

As an added bonus, which will be WORTH THE PRICE of the course on it’s own, you will be given access to a special facebook group that is dedicated to students helping each other grow each other’s youtube channels through giving free subscribes, likes, comment, views, and watch time to other student’s channels. This means your channel will grow EXTREMELY FAST and you will reach the monetization review process in no time, because you will be given free subscribes, views, likes, and comments on your channel by other students! This is ONLY available to students who have purchased the course.

What Will I Get Out Of This Course?
You will receive step-by-step training on every single aspect of generating revenue on Youtube, WITHOUT having to make your own videos! You will receive the blueprint I used and the special tips and tricks for how to choose a successful niche, how to download, upload, and monetize videos LEGALLY that do not have copyright licenses, secret tips to increase views and watch time, how to create unlimited youtube channels using unlimited phone numbers, secret to increasing views and subscribers, how to avoid getting your channel deleted or getting copyright strikes, how to get rid of copyright strikes, how to get past the youtube demonitization bots, how to get past the monitization review process quickly and easily, how to get your videos ranking on the search results, and a secret trick to making more money on youtube than ANYONE else is able to generate doing one simple secret that will increase your revenue times 10. You will also receive access to a special mastermind where I will answer any questions you have and can get tips, tricks, and answer questions from other students, as well as a Facebook group where all of the students will help you grow your channel quickly by giving you free subscribers, views, and watch time!

also You can find my other helpful Business-posts
(if old file-links don't show activity, try copy-paste them to the address bar)

General
Complete name : 3 Passing the Monetization Review in 2 weeks Method 2 - Jordan Mackey.mp4
Format : MPEG-4
Format profile : Base Media
Codec ID : isom (isom/iso2/avc1/mp41)
File size : 183 MiB
Duration : 13 min 44 s
Overall bit rate mode : Variable
Overall bit rate : 1 862 kb/s
Season : 0
Movie name : 3 Passing the Monetization Review in 2 weeks Method 2 - Jordan Mackey

Xtra : WM/Category

Video
ID : 1
Format : AVC
Format/Info : Advanced Video Codec
Format profile : Baseline@L1.3
Format settings : 1 Ref Frames
Format settings, CABAC : No
Format settings, RefFrames : 1 frame
Format settings, GOP : M=1, N=12
Codec ID : avc1
Codec ID/Info : Advanced Video Coding
Duration : 13 min 44 s
Bit rate : 1 729 kb/s
Width : 1 920 pixels
Height : 1 080 pixels
Display aspect ratio : 16:9
Frame rate mode : Constant
Frame rate : 29.970 (30000/1001) FPS
Color space : YUV
Chroma subsampling : 4:2:0
Bit depth : 8 bits
Scan type : Progressive
Bits/(Pixel*Frame) : 0.028
Stream size : 170 MiB (93%)
Encoded date : UTC 2019-03-10 18:30:42
Tagged date : UTC 2019-03-10 18:30:42
Menus : 3

Audio
ID : 2
Format : AAC
Format/Info : Advanced Audio Codec
Format profile : LC
Codec ID : mp4a-40-2
Duration : 13 min 44 s
Bit rate mode : Variable
Bit rate : 128 kb/s
Maximum bit rate : 215 kb/s
Channel(s) : 2 channels
Channel positions : Front: L R
Sampling rate : 44.1 kHz
Frame rate : 43.066 FPS (1024 SPF)
Compression mode : Lossy
Stream size : 12.6 MiB (7%)
Language : English
Encoded date : UTC 2019-03-10 18:30:42
Tagged date : UTC 2019-03-10 18:30:42

Menu
ID : 3
Codec ID : text
Duration : 13 min 44 s
Encoded date : UTC 2019-03-13 19:36:05
Tagged date : UTC 2019-03-13 19:36:05
Menu For : 1
00:00:00.000 : Chapter 1

Screenshots

Jordan Mackey - Make Money On Youtube Made Easy 2019

Jordan Mackey - Make Money On Youtube Made Easy 2019

Jordan Mackey - Make Money On Youtube Made Easy 2019

Jordan Mackey - Make Money On Youtube Made Easy 2019

Jordan Mackey - Make Money On Youtube Made Easy 2019

✅ Exclusive eLearning Videos ParRus-blogadd to bookmarks

Feel free to contact me PM
when links are dead or want any repost

Jordan Mackey - Make Money On Youtube Made Easy 2019