Subcategories

Anthony Metivier - Memory Masterclass

Posted By: ParRus
Anthony Metivier - Memory Masterclass

Anthony Metivier - Memory Masterclass
WEBRip | English | MP4 | 1152 x 720 | AVC ~1007 Kbps | 29.970 fps
AAC | 96 Kbps | 44.1 KHz | 2 channels | 05:05:45 | 2.55 GB
Genre: eLearning Video / Self Improvement

Discover Unusual Memory Techniques Proven To Improve Your Memory In Record Time And Used By Over 81,203 Students In 196 Countries… These world-renowned techniques help you achieve extraordinary memory improvement and work even if you think you've tried everything before, so continue reading… Read on to discover some of my cutting-edge memory strategies. Plus, you’ll discover a one-time only opportunity I guarantee will improve your memory and create positive change throughout your entire life …
Discover Unusual Memory Techniques Proven To Improve Your Memory In Record Time And Used By Over 81,203 Students In 196 Countries…

Imagine… One Simple Strategy That Places Life-Improving Information Directly Into Your Long Term Memory.

At Last! Everything You Need To Know Has Been Prepared With You In Mind…

Value: $1686
More Info: Salepage

also You can find other my useful: Self Improvement-posts

General
Complete name : Masterplan - Magnetic Memory Method-3G_P@FB.mp4
Format : MPEG-4
Format profile : Base Media
Codec ID : isom (isom/iso2/avc1/mp41)
File size : 342 MiB
Duration : 43 min 14 s
Overall bit rate mode : Variable
Overall bit rate : 1 106 kb/s
Season : 0
Part : 0
Track name : Masterplan - Magnetic Memory Method-3G_P@FB

Xtra : WM/Director

Video
ID : 1
Format : AVC
Format/Info : Advanced Video Codec
Format profile : Baseline@L1.3
Format settings : 1 Ref Frames
Format settings, CABAC : No
Format settings, RefFrames : 1 frame
Format settings, GOP : M=1, N=12
Codec ID : avc1
Codec ID/Info : Advanced Video Coding
Duration : 43 min 14 s
Bit rate : 1 007 kb/s
Width : 1 152 pixels
Height : 720 pixels
Display aspect ratio : 16:10
Frame rate mode : Constant
Frame rate : 29.970 (30000/1001) FPS
Color space : YUV
Chroma subsampling : 4:2:0
Bit depth : 8 bits
Scan type : Progressive
Bits/(Pixel*Frame) : 0.041
Stream size : 311 MiB (91%)
Encoded date : UTC 2018-12-17 18:32:16
Tagged date : UTC 2018-12-17 18:32:16
Menus : 3

Audio
ID : 2
Format : AAC
Format/Info : Advanced Audio Codec
Format profile : LC
Codec ID : mp4a-40-2
Duration : 43 min 14 s
Bit rate mode : Variable
Bit rate : 96.0 kb/s
Maximum bit rate : 122 kb/s
Channel(s) : 2 channels
Channel positions : Front: L R
Sampling rate : 44.1 kHz
Frame rate : 43.066 FPS (1024 SPF)
Compression mode : Lossy
Stream size : 29.1 MiB (9%)
Encoded date : UTC 2018-12-17 18:32:16
Tagged date : UTC 2018-12-17 18:32:16

Menu
ID : 3
Codec ID : text
Duration : 43 min 14 s
Encoded date : UTC 2019-01-04 19:24:35
Tagged date : UTC 2019-01-04 19:24:35
Menu For : 1
00:00:00.000 : Chapter 1

Screenshots

Anthony Metivier - Memory Masterclass

Anthony Metivier - Memory Masterclass

Anthony Metivier - Memory Masterclass

Anthony Metivier - Memory Masterclass

Exclusive eLearning Videos ParRus-blogadd to bookmarks

Anthony Metivier - Memory Masterclass