Tags
Language
Tags
December 2022
Su Mo Tu We Th Fr Sa
27 28 29 30 1 2 3
4 5 6 7 8 9 10
11 12 13 14 15 16 17
18 19 20 21 22 23 24
25 26 27 28 29 30 31

Duston McGroarty - Newsletter Secrets Masterclass

Posted By: ParRus
Duston McGroarty - Newsletter Secrets Masterclass

Duston McGroarty - Newsletter Secrets Masterclass
WEBRip | English | MP4 + PDF Guides | 1280 x 720 | AVC ~1227 Kbps | 30 fps
AAC | 109 Kbps | 44.1 KHz | 2 channels | ~22 hours | 11.5 GB
Genre: eLearning Video / Business, Sales, Marketing

If you're interested in learning how to get paid to send emails, keep reading. I don’t care if you have no product to sell, no email list, no experience or expertise, or if you’ve never even sent an email before. Here's how this simple 3-step system works…
Step 1: Drive targeted traffic to a simple squeeze page.

Step 2: Offer that traffic a free gift to convert them into email subscribers.
Step 3: Send those subscribers valuable content and offers.
Sounds too easy, right?
That's because it IS easy!
And it works like gangbusters!
I've tested it in EIGHT completely different niches with identical results.
It works every time.
I've shown other beginner marketers how to do this in years past and each one has come back to me excited and giddy about their results.
This is NOT something that's "here today and gone tomorrow" either.
This simple 3-step system has stood the test of time.
So many online marketing tricks, loopholes, and tactics have come and gone but my email newsletter businesses continue to stand strong.
Growing in size every day (on complete autopilot).
I’ve perfected this online business model so much so that I get approached frequently by folks begging me to consult with them.
Itching for the chance to pick my brain about the email newsletter business.
So, I’ve decided to do something even better and create an entire training course on the subject.
Documenting everything I know, from start to finish, about starting and running a wildly profitable email newsletter.
It’s called Newsletter Secrets.
I’m going to show you exactly how to start your own money-making email newsletter from scratch, regardless of your prior experience.

also You can find my other helpful Business-posts
(if old file-links don't show activity, try copy-paste them to the address bar)

General
Complete name : 02. 6 Elements Of Successful Squeeze Pages.mp4
Format : MPEG-4
Format profile : Base Media
Codec ID : isom (isom/iso2/avc1/mp41)
File size : 166 MiB
Duration : 17 min 21 s
Overall bit rate mode : Variable
Overall bit rate : 1 341 kb/s

AppleStoreCatalogID : 0
Xtra : WM/Category

Video
ID : 1
Format : AVC
Format/Info : Advanced Video Codec
Format profile : Baseline@L1.3
Format settings : 1 Ref Frames
Format settings, CABAC : No
Format settings, RefFrames : 1 frame
Format settings, GOP : M=1, N=12
Codec ID : avc1
Codec ID/Info : Advanced Video Coding
Duration : 17 min 21 s
Bit rate : 1 227 kb/s
Width : 1 280 pixels
Height : 720 pixels
Display aspect ratio : 16:9
Frame rate mode : Constant
Frame rate : 30.000 FPS
Color space : YUV
Chroma subsampling : 4:2:0
Bit depth : 8 bits
Scan type : Progressive
Bits/(Pixel*Frame) : 0.044
Stream size : 152 MiB (92%)
Encoded date : UTC 2021-06-01 08:07:50
Tagged date : UTC 2021-06-01 08:07:50
Menus : 3

Audio
ID : 2
Format : AAC
Format/Info : Advanced Audio Codec
Format profile : LC
Codec ID : mp4a-40-2
Duration : 17 min 21 s
Bit rate mode : Variable
Bit rate : 109 kb/s
Channel(s) : 2 channels
Channel positions : Front: L R
Sampling rate : 44.1 kHz
Frame rate : 43.066 FPS (1024 SPF)
Compression mode : Lossy
Stream size : 13.6 MiB (8%)
Encoded date : UTC 2021-06-01 08:07:50
Tagged date : UTC 2021-06-01 08:07:50

Menu
ID : 3
Codec ID : text
Duration : 17 min 21 s
Encoded date : UTC 2021-06-21 14:54:17
Tagged date : UTC 2021-06-21 14:54:17
Menu For : 1
00:00:00.000 : Chapter 1

Screenshots

Duston McGroarty - Newsletter Secrets Masterclass

Duston McGroarty - Newsletter Secrets Masterclass

Duston McGroarty - Newsletter Secrets Masterclass

Duston McGroarty - Newsletter Secrets Masterclass

Exclusive eLearning Videos ParRus-blogadd to bookmarks

Duston McGroarty - Newsletter Secrets Masterclass