Bruce Frantzis - Old Yang Style Tai Chi (Month 1-5)

Posted By: ParRus
Bruce Frantzis - Old Yang Style Tai Chi (Month 1-5)

Bruce Frantzis - Old Yang Style Tai Chi
WEBRip | English | MP4 | 640 x 360 | MPEG-4 ~1212 Kbps | 29 fps
AAC | 125 kbps | 44.1 KHz | 2 channels | 16:05:59 | 9.11 GB
Genre: eLearning Video / Martial Arts

Here is a quick learning progression in tai chi in general. Classically you start by learning the physical movements and body alignments. Then you slowly start to fold in the energetics. Just as you have external alignments, you also have internal alignments, which are physically invisible.
In the intermediate stage, the energetics become more detailed and you slowly put the techniques into the form. Then you start to get into application tracks because everything up to this point is general or learning the basics.

The type of application - healing, martial arts or meditation - will determine how and what you do.

What is important about the Old Yang Style is it will help you learn what is inside tai chi. It helps you take what is in the dark into the light so that you can know what to focus on and how to activate it in your body.

Here is a quick overview of the different areas of study that you can look at within tai chi:

Precise physical alignments
The 4 primary energies (and 13 total)
16 Taoist Neigong (inner energy work) principles
Yang Chen Fu’s 10 Principles
Internal energetic alignments
Martial art applications move by move
Other applications
All of this makes up the original source code of tai chi.This is not an intellectual study however, but rather a study of how energy specifically moves in the body.

The original tai chi forms are optimized to have the biggest health and energetic results on your body. This is why learning tai chi can be both fun and addicting because after you do your practice your body feels better, vital and more alive.

This is not by accident but is very conscious and intentional.

I am excited to be sharing with you this upcoming video series and telling you more about this in the future. What was once secret is now openly available for everyone to study and learn.

also You can look my other last: Martial Art-posts

General
Complete name : EATC_Taichi_18_23_0.mp4
Format : MPEG-4
Format profile : Base Media
Codec ID : isom (isom/iso2/mp41)
File size : 60.5 MiB
Duration : 6 min 17 s
Overall bit rate mode : Variable
Overall bit rate : 1 344 kb/s
Writing application : Lavf54.63.104

Video
ID : 1
Format : MPEG-4 Visual
Format profile : Simple@L1
Format settings, BVOP : No
Format settings, QPel : No
Format settings, GMC : No warppoints
Format settings, Matrix : Default (H.263)
Codec ID : 20
Duration : 6 min 17 s
Bit rate mode : Variable
Bit rate : 1 212 kb/s
Maximum bit rate : 1 500 kb/s
Width : 640 pixels
Height : 360 pixels
Display aspect ratio : 16:9
Frame rate mode : Constant
Frame rate : 29.000 FPS
Color space : YUV
Chroma subsampling : 4:2:0
Bit depth : 8 bits
Scan type : Progressive
Compression mode : Lossy
Bits/(Pixel*Frame) : 0.181
Stream size : 54.5 MiB (90%)
Writing library : Lavc54.92.100

Audio
ID : 2
Format : AAC
Format/Info : Advanced Audio Codec
Format profile : LC
Codec ID : 40
Duration : 6 min 17 s
Duration_LastFrame : -15 ms
Bit rate mode : Variable
Bit rate : 125 kb/s
Maximum bit rate : 128 kb/s
Channel(s) : 2 channels
Channel positions : Front: L R
Sampling rate : 44.1 kHz
Frame rate : 43.066 FPS (1024 spf)
Compression mode : Lossy
Stream size : 5.62 MiB (9%)
Default : Yes
Alternate group : 1

ScreenShots

Bruce Frantzis - Old Yang Style Tai Chi (Month 1-5)

Bruce Frantzis - Old Yang Style Tai Chi (Month 1-5)

Bruce Frantzis - Old Yang Style Tai Chi (Month 1-5)

Bruce Frantzis - Old Yang Style Tai Chi (Month 1-5)

Exclusive eLearning Videos ParRus-blogadd to bookmarks

Bruce Frantzis - Old Yang Style Tai Chi (Month 1-5)