Tags
Language
Tags

Ganesh Saravanan - Rank and Rent Strategy Program

Posted By: ParRus
Ganesh Saravanan - Rank and Rent Strategy Program

Ganesh Saravanan - Rank and Rent Strategy Program
WEBRip | English | MP4 | 1304 x 724 | AVC ~1084 Kbps | 25 fps
AAC | 89.7 Kbps | 44.1 KHz | 2 channels | ~7 hours | 5.08 GB
Genre: eLearning Video / Business, Sales, Marketing

Here's What You'll Get: - 4 Sessions of One on One Coaching Call - To get started on the right path OR answer any question or Look over any of your SEO Campaigns ($997 value) - A Full Step by Step Video Series on Search Engine Ranking (Organic Ranking) and in Maps – includes going into detail on the steps outlined in the ebook ($3997 Value) -The Right Way to do Keyword Research to Generate 50% more calls – I will show you how to find untapped, high-volume keywords that your customers search for using my proven techniques. ($297 value)
-Over The Shoulder Video Series of me ranking a Water Damage website in a big city – I show every step from keyword research to ranking it (on going) ($997 value)

-Detailed Videos on How I Source my PBNs and How I Buy and Set up $12 PBNs to rank sites – I honestly dont know any course which teaches this. With $200 worth PBNs you can rank 2-3 lead gen sites and rent them for $500/mo easily. ($997 value)

-The ONLY method I Use Now to Get Clients First Before Starting to Rank a Site! - This is my cold email strategy where I show how I get 30% open rates and 15% response rates! And you get the email templates! ($297 value)

-My Secret Citations Strategy to Get Ranked in Maps – I show you how this consistently gets you ranked in maps ($997 value)

-How to Outsource all the Grunt Work the Right Way - I will show you how you can outsource repetitive work and save your time and energy to focus on more important tasks ($297 value)

-My Cold Email templates and Videos on How I Get 10% - 20% Response Rates - I will give you my pre-made templates that you can customize it for any business and get good response rates. ($497 Value)

- GMB Quick Rank Method (Quick Rank and Bank Method) - You will get my secret GMB Quick Rank method which can help you to rank and bank!!!($297 Value)

Here are some of the Extra Bonuses when you join the course Today:

1. A FREE Fully Optimized Lead Generation Site - $297 Value

2. Quick Client Getting Method to Make Some Quick $$ - $297 Value

3. My New Email Template Where Personal Injury and Divorce Lawyers are Asking to Talk to Me!! - $397 Value

4. New Over The Shoulder video series where I show each step I am taking to rank a "personal injury" keyword in a major city! - every single step recorded and explained as we rank a $300 cpc keyword in a very tough niche and in a huge city! $9997 Value

5. Access to My Private Facebook Group - Invaluable

also You can find my other helpful Business-posts
(if old file-links don't show activity, try copy-paste them to the address bar)

General
Complete name : 01-Local SEO 101.mp4
Format : MPEG-4
Format profile : Base Media
Codec ID : isom (isom/iso2/avc1/mp41)
File size : 84.9 MiB
Duration : 10 min 4 s
Overall bit rate mode : Variable
Overall bit rate : 1 178 kb/s
Season : 0
Movie name : 01-Local SEO 101
Part : 0

AppleStoreCatalogID : 0
Xtra : WM/Category

Video
ID : 1
Format : AVC
Format/Info : Advanced Video Codec
Format profile : Baseline@L1.3
Format settings : 1 Ref Frames
Format settings, CABAC : No
Format settings, RefFrames : 1 frame
Format settings, GOP : M=1, N=12
Codec ID : avc1
Codec ID/Info : Advanced Video Coding
Duration : 10 min 4 s
Bit rate : 1 084 kb/s
Width : 1 304 pixels
Height : 724 pixels
Display aspect ratio : 16:9
Frame rate mode : Constant
Frame rate : 25.000 FPS
Color space : YUV
Chroma subsampling : 4:2:0
Bit depth : 8 bits
Scan type : Progressive
Bits/(Pixel*Frame) : 0.046
Stream size : 78.2 MiB (92%)
Encoded date : UTC 2019-09-10 17:42:19
Tagged date : UTC 2019-09-10 17:42:19
Menus : 3

Audio
ID : 2
Format : AAC
Format/Info : Advanced Audio Codec
Format profile : LC
Codec ID : mp4a-40-2
Duration : 10 min 4 s
Bit rate mode : Variable
Bit rate : 89.7 kb/s
Channel(s) : 2 channels
Channel positions : Front: L R
Sampling rate : 44.1 kHz
Frame rate : 43.066 FPS (1024 SPF)
Compression mode : Lossy
Stream size : 6.47 MiB (8%)
Encoded date : UTC 2019-09-10 17:42:19
Tagged date : UTC 2019-09-10 17:42:19

Menu
ID : 3
Codec ID : text
Duration : 10 min 4 s
Encoded date : UTC 2019-09-18 15:52:54
Tagged date : UTC 2019-09-18 15:52:54
Menu For : 1
00:00:00.000 : Chapter 1

Screenshots

Ganesh Saravanan - Rank and Rent Strategy Program

Ganesh Saravanan - Rank and Rent Strategy Program

Ganesh Saravanan - Rank and Rent Strategy Program

Ganesh Saravanan - Rank and Rent Strategy Program

✅ Exclusive eLearning Videos ParRus-blogadd to bookmarks

Feel free to contact me PM
when links are dead or want any repost

Ganesh Saravanan - Rank and Rent Strategy Program