Tags
Language
Tags
June 2024
Su Mo Tu We Th Fr Sa
26 27 28 29 30 31 1
2 3 4 5 6 7 8
9 10 11 12 13 14 15
16 17 18 19 20 21 22
23 24 25 26 27 28 29
30 1 2 3 4 5 6

Selling with Confidence - Josh Forti

Posted By: ParRus
Selling with Confidence - Josh Forti

Selling with Confidence - Josh Forti
WEBRip | English | MP4 + PDF Guides | 1920 x 1080 | AVC ~4943 kbps | 29.970 fps
AAC | 253 Kbps | 48.0 KHz | 2 channels | ~12 hours | 17.65 GB
Genre: eLearning Video / Business, Sales, Marketing

Selling With Confidence: 1. Teaches the EXACT sales process that allows you to sell your offer without sounding pushy, needy, or like a used car salesman. (Used by 100s of entrepreneurs) 2. Is the #1 Sales Psychology Based sales training that teaches sales based in human psychology, not just random "sales hacks" and "sleezy sales tactics". 3. Gives you the sales formula that gives you the confidence to state the price & handle objections - even if you don't know what to say! - (The CGSG Formula) 4. How to build a "Sequential Value Pipeline" to never run out of leads, and prequalify them to avoid cold calling, rejection, and sounding clueless.
Almost All Entrepreneurs Have The Same Issues When It Comes To Selling: Chances are, you are struggling with some of the same issues yourself.

And you may not even realize it…

If your SALES GOALS include:
​Making more MONEY, controlling your income, and reaching FINANCIAL FREEDOM…
​Having unshakable CONFIDENCE on sales calls, and never getting rattled even if you are interrupted, caught off guard, or don't have an answer right away…
​​How to "sell" without sounding "Salesy", so the prospect feels like they got real value out of the call, and not like it is one big sales pitch…
​Rapidly increasing your CLOSING percentage, and being able to increase your sales numbers without increasing the amount of calls. (And grow your business predictably)…
​Instantly controlling the SALES CONVERSATION and knowing exactly what to say, without coming across as rude, pushy, demanding, or "salesy"…
​Consistently being able to "get the yes" on the call, and not having to deal with the constant back and forth of calls and "I will think about it"…
​Being able to HANDLE ALL OBJECTIONS clearly, and knowing exactly what to say even when you don't know the answer…
​​ABOVE ALL, avoiding the high pressure sales methods and sleezy sales tactics to get the yes, but rather get the client to WANT to work with you…
Then you need to understand SALES PSYCHOLOGY, and craft your
sales call in a way that allows for ALL those things to happen!
(Most sales formulas DON'T contain all the elements.)

Recap Of What You'll Get Inside Selling With Confidence When You Invest Right Now:
​The CGSC Sales Method: Step By Step Formula that will allow you to start closing deals consistently, master your income and grow your business. $2.5M ($997 Value)
​The Secrets Of Sales Psychology: Dissecting the sales process so that you can understand ethical laws of persuasion and decision making, and what makes people buy. ($497 Value)
​​Understanding The Buyer: Inside the head of your prospect, so you can figure out what it is that is holding them back, and what it is they are actually after. ($497 Value)
​The "Sales Confidence Creator": Creating unshakable confidence in sales, so you never have to worry about not knowing what to say, or feeling overwhelmed during sales calls. ($497 Value)
​Identifying "The Who": Figuring out who your dream customer is, what their pains and desires are, and how they think. ($497 Value)
​Productizing Your Offer: Making Your Offer Red Hot & Ready To Sell ($497 Value)
​​Validating The Market & Offer: Making sure you have an offer that sells. ($497 Value)
​Creating Your Sales Conversion Machine: How to set up your instant authority machine. ($497 Value)
​The Pre-Qualification Process: Making sure you only get on the phone with qualified people. ($297 Value)
​The Objections Handler War Chest: A war chest full over responses on how to overcome any objection you run into (constantly updated when we get requests). ($497 Value)
​The Post Close Process: What to do to ensure your prospect pays, doesn't ghost, and is 100% happy with their purchase. ($397 Value)
​The "Sequential Value Pipeline Structure: How to setup your pipeline to never run out of leads. ($497 Value)
​My Exact $2.5M Sales Script: This is the exact sales script that I used to close over $2.5 in sales.
You'll never have to guess what comes next. Just look at the script and say the words! (Priceless!)
"The Sale Cheatsheet": Key points & phrases to remember in every sales call, so you never have to worry about remembering what to say. ($197 Value)
​Instantly upgrade your inner circle: Access to the "private student FB Group". Network with all the other students, share struggles, and bounce ideas off each other. ($497 Value)
​DIRECT ACCESS TO JOSH Via LIVE Training Calls: Attend monthly calls with Josh Forti and get all your sales questions answered, have Josh tweak your script, and more! ($5,000 value!)
Social Media Secrets Workshop: 4.5 hours of training on everything you need to grow and prospect successfully on social media. Eliminate cold calling & get high quality leads ($197 Value)
Plug & Play Lead Generation Funnel: Immediately start generating leads & booking calls from social media with a proven "plug and play" sales funnel template. Click. Edit. Go. ($497 Value)
​High Ticket Systems Creation Masterclass: The step by step process I use to create sales systems. ($197 Value!)
​"Phone-Free Closing": The exact process my business partner used to close over 6-figures in deals without EVER getting on the phone. ($197 Value)
Total Value: $14,227!

also You can find my other helpful Business-posts
(if old file-links don't show activity, try copy-paste them to the address bar)

General
Complete name : 3-Why People Buy (11 Reasons).mp4
Format : MPEG-4
Format profile : Base Media / Version 2
Codec ID : mp42 (mp42/mp41/isom/avc1)
File size : 920 MiB
Duration : 24 min 43 s
Overall bit rate mode : Variable
Overall bit rate : 5 201 kb/s
Encoded date : UTC 2019-08-27 00:07:13
Tagged date : UTC 2019-08-27 00:07:13

Video
ID : 1
Format : AVC
Format/Info : Advanced Video Codec
Format profile : High@L4
Format settings : CABAC / 5 Ref Frames
Format settings, CABAC : Yes
Format settings, RefFrames : 5 frames
Codec ID : avc1
Codec ID/Info : Advanced Video Coding
Duration : 24 min 43 s
Bit rate : 4 943 kb/s
Width : 1 920 pixels
Height : 1 080 pixels
Display aspect ratio : 16:9
Frame rate mode : Constant
Frame rate : 29.970 (30000/1001) FPS
Color space : YUV
Chroma subsampling : 4:2:0
Bit depth : 8 bits
Scan type : Progressive
Bits/(Pixel*Frame) : 0.080
Stream size : 874 MiB (95%)
Writing library : x264 core 157 r10 d4099dd
Encoding settings : cabac=1 / ref=5 / deblock=1:0:0 / analyse=0x3:0x113 / me=hex / subme=8 / psy=1 / psy_rd=1.00:0.00 / mixed_ref=1 / me_range=16 / chroma_me=1 / trellis=2 / 8x8dct=1 / cqm=0 / deadzone=21,11 / fast_pskip=1 / chroma_qp_offset=-2 / threads=34 / lookahead_threads=5 / sliced_threads=0 / nr=0 / decimate=1 / interlaced=0 / bluray_compat=0 / stitchable=1 / constrained_intra=0 / bframes=3 / b_pyramid=2 / b_adapt=2 / b_bias=0 / direct=3 / weightb=1 / open_gop=0 / weightp=2 / keyint=infinite / keyint_min=29 / scenecut=40 / intra_refresh=0 / rc_lookahead=50 / rc=crf / mbtree=1 / crf=20.0 / qcomp=0.60 / qpmin=5 / qpmax=69 / qpstep=4 / vbv_maxrate=5500 / vbv_bufsize=15000 / crf_max=0.0 / nal_hrd=none / filler=0 / ip_ratio=1.40 / aq=1:1.00
Encoded date : UTC 2019-08-27 00:07:13
Tagged date : UTC 2019-08-27 00:07:13
Color range : Limited
Color primaries : BT.709
Transfer characteristics : BT.709
Matrix coefficients : BT.709

Audio
ID : 2
Format : AAC
Format/Info : Advanced Audio Codec
Format profile : LC
Codec ID : mp4a-40-2
Duration : 24 min 43 s
Bit rate mode : Variable
Bit rate : 253 kb/s
Channel(s) : 2 channels
Channel positions : Front: L R
Sampling rate : 48.0 kHz
Frame rate : 46.875 FPS (1024 SPF)
Compression mode : Lossy
Stream size : 44.8 MiB (5%)
Encoded date : UTC 2019-08-27 00:07:13
Tagged date : UTC 2019-08-27 00:07:13
Screenshots

Selling with Confidence - Josh Forti

Selling with Confidence - Josh Forti

Selling with Confidence - Josh Forti

Selling with Confidence - Josh Forti

✅ Exclusive eLearning Videos ParRus-blogadd to bookmarks
Feel free to contact me PM
when links are dead or want any repost

Selling with Confidence - Josh Forti