Tags
Language
Tags

Udemy - SEO + Local SEO 2020 - Get More Customers From Google Search

Posted By: ParRus
Udemy - SEO + Local SEO 2020 - Get More Customers From Google Search

Udemy - SEO + Local SEO 2020 - Get More Customers From Google Search
WEBRip | English | MP4 | 1280 x 720 | AVC ~859 kbps | 30 fps
AAC | 128 Kbps | 48.0 KHz | 2 channels | Subs: English (.srt) | ~2.5 hours | 1.89 GB
Genre: eLearning Video / Marketing, SEO

Learn SEO And Local SEO Step By Step - So That Customers Can Find Your Business On Google - Search Engine Optimization
What you'll learn

Understand SEO and Local SEO and how to build a strong presence in search
Understand citations, reviews, backlinks and how to use them to build a strong presence in search
Know how to create and manage a Google My Business listing
Understand how Local SEO and SEO Ranking Factors are applied and how to implement them on your own website

Requirements
They will need online access to the internet
They will need a basic understanding of social media marketing
They will need a real world local business that serves a local community

Description
SEO - Local SEO - Fully Up To Date For 2020!*

SEO Training - With a little bit of training, you can learn how to improve your search rankings and SEO rankings using up to date techniques for 2019 and grow your business presence online.

*This course is included in the Social Media Marketing Masterclass - So please do not purchase if you already have that course.

Wordpress Not Required

Most SEO courses assume you have Wordpress, but you can use the methods in this course with any website, not just Wordpress, both for Local SEO And International SEO.

Objectives Of The SEO Course

This course is a guide to show you how to improve you search position for your business using the latest and up to date SEO techniques.

Guide To Local SEO And SEO:

This is a complete guide with step by step instructions on how to improve your local search rankings in Google local search and Google maps search, using these techniques for both Local Search and International Search, you will improve your rankings.

Knowing how to do all the things Google wants you to do, gives you an advantage.

If someone in your area is searching for your business on Google, you will need to appear in search in a favourable position.

Creating a strong SEO (search engine optimisation) strategy is key and this course will guide you through that process.

What You Will Learn About SEO In This Course:

In this course, you will learn how to set up your business in local search and international search so that it can be found.

And you will learn how to improve your rankings and competitiveness in local search results and international search results.

You will also learn the key principles of online search marketing so that you can grow your business with highly targeted potential clients in an easy to understand way!

So if you are a business owner, that serves a local area or an international area and you want to compete in Google search with organic traffic (free traffic), then this course contains essential information that will help you do that.

It is also useful if you are running a marketing business as it will give you very specific SEO training on how you can help your clients impact their position in search, which will deepen the strength of your service offerings.

Special Note For Marketers Who Want To Learn Local SEO:

Once you have gone through the course, you will in turn, be able to train others, we recommend that you practice the principles first however, until you are completely sure that you have grasped all the ins and outs that we discuss in the training.

Course Format:

The SEO training is presented in a really simple format that anyone can understand and all terms are clearly explained throughout the course.
This is a video course with on screen notes and screen shares throughout.
The Guarantee:
Before we go any further, let us just say, we don’t want you to be disappointed.
If you don’t like this course for any reason, you can get a full refund in the first 30 days, which is backed by Udemy’s 30 day guarantee, with no questions asked!

Questions This Course Answers:

How can I get my business to do better in local search results?
How do I get my business higher in Google maps results?
How do I get my business to rank better in international search on Google?
How do I get my business found on Google?
Why don't I see my business in Google maps?
How does Google My Business work?
Join Me On The Other Side And Learn Local SEO And Best SEO Practices:
So join me on the other side and learn how to use local search marketing to grow your business profits and your business!

Who this course is for:
Business owners who serve a local customer base, e.g. shops, restaurants, trades etc
Marketers who want to offer Local SEO and SEO services to local clients will find this course invaluable and help them deepen the value of their services
Small business owners who want to do their own SEO
Website developers that want to learn the basics of SEO and Local SEO

also You can find my other helpful SEO-posts
(if old file-links don't show activity, try copy-paste them to the address bar)

General
Complete name : 012 Creating A Google Review Strategy.mp4
Format : MPEG-4
Format profile : Base Media
Codec ID : isom (isom/iso2/avc1/mp41)
File size : 57.3 MiB
Duration : 8 min 2 s
Overall bit rate : 996 kb/s
Writing application : Lavf58.12.100

Video
ID : 1
Format : AVC
Format/Info : Advanced Video Codec
Format profile : Main@L3.1
Format settings : CABAC / 4 Ref Frames
Format settings, CABAC : Yes
Format settings, RefFrames : 4 frames
Codec ID : avc1
Codec ID/Info : Advanced Video Coding
Duration : 8 min 2 s
Bit rate : 859 kb/s
Nominal bit rate : 3 000 kb/s
Width : 1 280 pixels
Height : 720 pixels
Display aspect ratio : 16:9
Frame rate mode : Constant
Frame rate : 30.000 FPS
Color space : YUV
Chroma subsampling : 4:2:0
Bit depth : 8 bits
Scan type : Progressive
Bits/(Pixel*Frame) : 0.031
Stream size : 49.5 MiB (86%)
Writing library : x264 core 148
Encoding settings : cabac=1 / ref=3 / deblock=1:-1:-1 / analyse=0x1:0x111 / me=umh / subme=6 / psy=1 / psy_rd=1.00:0.15 / mixed_ref=1 / me_range=16 / chroma_me=1 / trellis=1 / 8x8dct=0 / cqm=0 / deadzone=21,11 / fast_pskip=1 / chroma_qp_offset=-3 / threads=22 / lookahead_threads=3 / sliced_threads=0 / nr=0 / decimate=1 / interlaced=0 / bluray_compat=0 / constrained_intra=0 / bframes=3 / b_pyramid=2 / b_adapt=1 / b_bias=0 / direct=1 / weightb=1 / open_gop=0 / weightp=2 / keyint=60 / keyint_min=6 / scenecut=0 / intra_refresh=0 / rc_lookahead=60 / rc=cbr / mbtree=1 / bitrate=3000 / ratetol=1.0 / qcomp=0.60 / qpmin=0 / qpmax=69 / qpstep=4 / vbv_maxrate=3000 / vbv_bufsize=6000 / nal_hrd=none / filler=0 / ip_ratio=1.40 / aq=1:1.00

Audio
ID : 2
Format : AAC
Format/Info : Advanced Audio Codec
Format profile : LC
Codec ID : mp4a-40-2
Duration : 8 min 2 s
Bit rate mode : Constant
Bit rate : 128 kb/s
Channel(s) : 2 channels
Channel positions : Front: L R
Sampling rate : 48.0 kHz
Frame rate : 46.875 FPS (1024 SPF)
Compression mode : Lossy
Stream size : 7.37 MiB (13%)
Default : Yes
Alternate group : 1
Screenshots

Udemy - SEO + Local SEO 2020 - Get More Customers From Google Search

Udemy - SEO + Local SEO 2020 - Get More Customers From Google Search

Udemy - SEO + Local SEO 2020 - Get More Customers From Google Search

Udemy - SEO + Local SEO 2020 - Get More Customers From Google Search

Udemy - SEO + Local SEO 2020 - Get More Customers From Google Search

✅ Exclusive eLearning Videos ParRus-blogadd to bookmarks
Feel free to contact me PM
when links are dead or want any repost

Udemy - SEO + Local SEO 2020 - Get More Customers From Google Search