Tags
Language
Tags

Social Media Examiner - The Social Video Summit 2021

Posted By: ParRus
Social Media Examiner - The Social Video Summit 2021

Social Media Examiner - The Social Video Summit 2021
WEBRip | English | MP4 + PDF Guides | 1920 x 1080 | AVC ~3655 Kbps | 29.970 fps
AAC | 253 Kbps | 48.0 KHz | 2 channels | 07:15:28 | 12.3 GB
Genre: eLearning Video / Business, Sales, Marketing

How to Improve Your Exposure and Sales With Social Video Achieve more wins for your company or clients. World's top pros show you how-live and online! Wish you had an engaged social following that turned into customers? Are the algorithms killing your marketing? Want to succeed with social video, but something's stopping you? Perhaps you think you don't have the time, know-how, or skills to compete.
Could social video be amazing for your business, but you haven't been able to figure it out?
The good news is you're not alone. 70% of marketers want to learn more about social video, according to our research.
But, if you want social video to bring you more exposure, leads, and sales, something's got to change.
If you truly want to make social video work for you, keep reading. It's not impossible. You DO NOT need to be a professional videographer, a talented editor, or have an amazing personality.

What You Get:
The Path to Social Video Marketing Success
You're about to be coached by 12 of the world's best social video marketing pros for an entire week. Each expert is a dedicated specialist. They live and breathe social video, delivering results for their clients every day. And they'll share their proven strategies with you.

You'll learn from their mistakes, experiments, and successes. Imagine putting their wisdom to work immediately in your business.

Picture this.
- Gaining the confidence to effortlessly create videos that people love to watch. ? Crafting social videos that help you sell without feeling overly salesy. ? Your boss or clients applauding you because you've crushed your marketing objectives.
You know you need to do more with social video. If you don't, you'll be missing out on an amazing opportunity to grow your business.

also You can find my other helpful Business-posts
(if old file-links don't show activity, try copy-paste them to the address bar)

General
Complete name : 04-YouTube Live - How to Create Massive Loyalty on the Largest Video Platform - Luria Petrucci.mp4
Format : MPEG-4
Format profile : Base Media / Version 2
Codec ID : mp42 (mp42/mp41/isom/avc1)
File size : 1.29 GiB
Duration : 47 min 8 s
Overall bit rate mode : Variable
Overall bit rate : 3 924 kb/s
Season : 0
Part : 0
ContentType : TV Show
Encoded date : UTC 2021-05-25 20:20:47
Tagged date : UTC 2021-08-14 19:47:15
AppleStoreCatalogID : 0

Video
ID : 1
Format : AVC
Format/Info : Advanced Video Codec
Format profile : High@L4
Format settings : CABAC / 5 Ref Frames
Format settings, CABAC : Yes
Format settings, RefFrames : 5 frames
Codec ID : avc1
Codec ID/Info : Advanced Video Coding
Duration : 47 min 8 s
Bit rate : 3 655 kb/s
Width : 1 920 pixels
Height : 1 080 pixels
Display aspect ratio : 16:9
Frame rate mode : Constant
Frame rate : 29.970 (30000/1001) FPS
Color space : YUV
Chroma subsampling : 4:2:0
Bit depth : 8 bits
Scan type : Progressive
Bits/(Pixel*Frame) : 0.059
Stream size : 1.20 GiB (93%)
Writing library : x264 core 161 r10 c347e7a
Encoding settings : cabac=1 / ref=5 / deblock=1:0:0 / analyse=0x3:0x113 / me=hex / subme=8 / psy=1 / psy_rd=1.00:0.00 / mixed_ref=1 / me_range=16 / chroma_me=1 / trellis=2 / 8x8dct=1 / cqm=0 / deadzone=21,11 / fast_pskip=1 / chroma_qp_offset=-2 / threads=34 / lookahead_threads=5 / sliced_threads=0 / nr=0 / decimate=1 / interlaced=0 / bluray_compat=0 / stitchable=1 / constrained_intra=0 / bframes=3 / b_pyramid=2 / b_adapt=2 / b_bias=0 / direct=3 / weightb=1 / open_gop=0 / weightp=2 / keyint=infinite / keyint_min=29 / scenecut=40 / intra_refresh=0 / rc_lookahead=50 / rc=crf / mbtree=1 / crf=20.0 / qcomp=0.60 / qpmin=5 / qpmax=69 / qpstep=4 / vbv_maxrate=5500 / vbv_bufsize=15000 / crf_max=0.0 / nal_hrd=none / filler=0 / ip_ratio=1.40 / aq=1:1.00
Language : Vietnamese
Encoded date : UTC 2021-05-25 20:20:47
Tagged date : UTC 2021-05-25 20:20:47
Color range : Limited
Color primaries : BT.709
Transfer characteristics : BT.709
Matrix coefficients : BT.709
Menus : 3

Audio
ID : 2
Format : AAC
Format/Info : Advanced Audio Codec
Format profile : LC
Codec ID : mp4a-40-2
Duration : 47 min 8 s
Bit rate mode : Variable
Bit rate : 253 kb/s
Channel(s) : 2 channels
Channel positions : Front: L R
Sampling rate : 48.0 kHz
Frame rate : 46.875 FPS (1024 SPF)
Compression mode : Lossy
Stream size : 85.4 MiB (6%)
Encoded date : UTC 2021-05-25 20:20:47
Tagged date : UTC 2021-05-25 20:20:47

Menu
ID : 3
Codec ID : text
Duration : 47 min 8 s
Encoded date : UTC 2021-08-14 19:47:15
Tagged date : UTC 2021-08-14 19:47:15
Menu For : 1
00:00:00.000 : Chapter 1

Screenshots

Social Media Examiner - The Social Video Summit 2021

Social Media Examiner - The Social Video Summit 2021

Social Media Examiner - The Social Video Summit 2021

Social Media Examiner - The Social Video Summit 2021

Exclusive eLearning Videos ParRus-blogadd to bookmarks

Social Media Examiner - The Social Video Summit 2021