Tags
Language
Tags

Lynda - SolidWorks 2016 Essential Training [repost]

Posted By: ParRus
Lynda - SolidWorks 2016 Essential Training [repost]

Lynda - SolidWorks 2016 Essential Training
WEBRip | English | MP4 + Project files | 1280 x 800 | AVC ~367 kbps | 15 fps
AAC | 160 Kbps | 48.0 KHz | 2 channels | 5h 43mn | 1.11 GB
Genre: Video Tutorial

This training course will teach you the essential tools and modeling techniques to design efficiently in SOLIDWORKS—the world's leading CAD software for product design and development. We use the simple but effective "why, what, how" method of teaching, with the end goal of creating manufacturing-ready parts and assemblies.
Author Gabriel Corbett first shows how to create 2D sketches and use the Extrude and Revolve tools to turn those sketches into 3D parts. Then he shows how to create more complex geometry with sweeps, lofts, and cuts. Then we jump into lessons covering modifier tools such as Fillet, Chamfer, Draft, and Shell. Then you learn how to create uniform standard holes with the Hole Wizard, and use the pattern and mirror features to reuse geometry. Next we combine parts into assemblies and create a moving assembly from parts and subassemblies. Finally, we create accurately annotated drawings, ready to hand off to a manufacturer.
Topics include:
Creating your first 3D part
Creating sketches
Modeling with the Extrude and Revolve features
Applying materials, colors, and backgrounds
Sketching basic shapes and polygons
Creating offset geometry
Moving, copying, and rotating elements
Working with planes, axes, and the coordinate system
Creating smooth and angled corners with fillets and chamfers
Advanced part modeling with the Loft and Sweep features
Using the Hole Wizard
Designing with blocks
Building assemblies and subassemblies
Mating parts
Using design tables
Adding parts and assemblies to drawings
Adding dimension notations to a drawing

General
Complete name : 04_04-Using the Extruded Cut feature.mp4
Format : MPEG-4
Format profile : Base Media / Version 2
Codec ID : mp42
File size : 21.5 MiB
Duration : 5mn 38s
Overall bit rate mode : Variable
Overall bit rate : 532 Kbps
Encoded date : UTC 2015-10-26 08:17:00
Tagged date : UTC 2015-10-26 08:17:00

Video
ID : 1
Format : AVC
Format/Info : Advanced Video Codec
Format profile : Main@L3.2
Format settings, CABAC : Yes
Format settings, ReFrames : 5 frames
Codec ID : avc1
Codec ID/Info : Advanced Video Coding
Duration : 5mn 38s
Bit rate mode : Variable
Bit rate : 367 Kbps
Maximum bit rate : 1 000 Kbps
Width : 1 280 pixels
Height : 800 pixels
Display aspect ratio : 16:10
Frame rate mode : Constant
Frame rate : 15.000 fps
Color space : YUV
Chroma subsampling : 4:2:0
Bit depth : 8 bits
Scan type : Progressive
Bits/(Pixel*Frame) : 0.024
Stream size : 14.8 MiB (69%)
Title : Telestream Inc. Dib Library - ReleaseVantage 2014.59.138974
Writing library : x264 core 129
Encoding settings : cabac=1 / ref=5 / deblock=1:0:0 / analyse=0x1:0x111 / me=hex / subme=7 / psy=1 / psy_rd=1.00:0.00 / mixed_ref=1 / me_range=16 / chroma_me=1 / trellis=1 / 8x8dct=0 / cqm=0 / deadzone=21,11 / fast_pskip=1 / chroma_qp_offset=-2 / threads=14 / lookahead_threads=2 / sliced_threads=0 / nr=0 / decimate=1 / interlaced=0 / bluray_compat=0 / constrained_intra=0 / bframes=1 / b_pyramid=0 / b_adapt=1 / b_bias=0 / direct=1 / weightb=1 / open_gop=0 / weightp=2 / keyint=150 / keyint_min=15 / scenecut=40 / intra_refresh=0 / rc_lookahead=40 / rc=crf / mbtree=1 / crf=22.0 / qcomp=0.60 / qpmin=0 / qpmax=69 / qpstep=4 / vbv_maxrate=1000 / vbv_bufsize=6400 / crf_max=0.0 / nal_hrd=vbr / ip_ratio=3.00 / aq=1:1.00
Language : English
Encoded date : UTC 2015-10-26 08:17:00
Tagged date : UTC 2015-10-26 08:17:00

Audio
ID : 2
Format : AAC
Format/Info : Advanced Audio Codec
Format profile : LC
Codec ID : 40
Duration : 5mn 38s
Bit rate mode : Constant
Bit rate : 160 Kbps
Nominal bit rate : 128 Kbps
Channel(s) : 2 channels
Channel positions : Front: L R
Sampling rate : 48.0 KHz
Compression mode : Lossy
Stream size : 6.46 MiB (30%)
Title : Telestream Inc. Dib Library - ReleaseVantage 2014.59.138974
Language : English
Encoded date : UTC 2015-10-26 08:17:00
Tagged date : UTC 2015-10-26 08:17:00
Screenshots

Lynda - SolidWorks 2016 Essential Training [repost]

Lynda - SolidWorks 2016 Essential Training [repost]

Lynda - SolidWorks 2016 Essential Training [repost]

Lynda - SolidWorks 2016 Essential Training [repost]

Exclusive eLearning Videos ParRus-blogadd to bookmarks

Lynda - SolidWorks 2016 Essential Training [repost]