Subcategories

Truefire - Rock Chops with Scott Allen's

Posted By: ParRus
Truefire - Rock Chops with Scott Allen's

Truefire - Rock Chops with Scott Allen's
WEBRip | English | MP4 + PDF Guides | 864 x 486 | AVC ~972 kbps | 29.970 fps
AAC 128 Kbps 44.1 KHz | 2 channels | 02:08:54 | 1 GB
Genre: eLearning Video / Guitar lesson

Rock Chops will cover the A-Z of rock guitar soloing. By the end of the course you should have a comprehensive understanding of the basic tools required for rock and metal lead guitar, and a greatly improved vocabulary. You should also have a much better idea on how to develop your technique going forward.
We will start with learning pentatonic scales, licks and sequences. Here we will cover learning all of the pentatonic scales and how to develop speed, coordination and vocabulary by applying sequences. We will then further develop vocabulary with some very cool and easy to use burning licks.

Then we will move on to understanding the diatonic scales and start to work on getting our chops and vocabulary together by applying 16th note, 16th note triplet, legato, horizontal and diagonal sequences. These are concepts made famous by players like Steve Vai, Joe Satriani, Paul Gilbert, and Randy Rhoads.

Next we will learn our triad arpeggios and begin learning how to sweep pick. We will cover the basic shapes for our arpeggios and learn how to use the metronome to develop speed and synchronization, the most important things that relate to sweep picking.

Along the way we will learn some artist specific arpeggios, which are arpeggios that are favored by some of the great guitar players in rock. Here we will cover arpeggios favored by Randy Rhoads, George Lynch, Paul Gilbert, and Eric Johnson.

After that we will get into extended arpeggios that will cover more of the neck and will get into more modern shredders styles such as Marty Friedman, Jeff Loomis, and Chris Broderick.
Next up will be learning about two handed tapping techniques made famous by the great Eddie Van Halen. Here we will cover the basics of the technique as well as crossing strings and applying some very cool and commonly used tricks.

As soon as the basics of the technique are down it is time to kick it up a notch and apply this concept to diatonic scales and start to use the entire neck as our playground for tapping in the style of greats like Steve Vai, and Reb Beach.

At the end of the course you will have covered everything from your basic pentatonic and diatonic scales, developing synchronization, speed, arpeggios, sweep picking including multi octave sweeps.

You will learn to use the metronome to develop muscle memory, synchronization and speed, as well as basic and more advanced tapping.It is truly as A-Z crash course in rock and metal lead guitar.

Ready to power up your Rock Chops? Grab your guitar and let’s get dig in!

NOTE! Scott Allen organized the course into 8 weekly sections for those students that prefer to have a specified regimen of material across a specified time schedule. However, for those students who prefer to work at their own pace, or even skip around you are certainly encouraged to approach the course in that way as well.

also You can find my other last: Guitar Lessons-posts

General
Complete name : 3852_hi.mp4
Format : MPEG-4
Format profile : Base Media
Codec ID : isom (isom/iso2/avc1/mp41)
File size : 24.2 MiB
Duration : 3 min 3 s
Overall bit rate : 1 106 kb/s
Writing application : Lavf55.18.100

Video
ID : 1
Format : AVC
Format/Info : Advanced Video Codec
Format profile : Baseline@L3.1
Format settings, CABAC : No
Format settings, ReFrames : 3 frames
Codec ID : avc1
Codec ID/Info : Advanced Video Coding
Duration : 3 min 3 s
Bit rate : 972 kb/s
Width : 864 pixels
Height : 486 pixels
Display aspect ratio : 16:9
Frame rate mode : Variable
Frame rate : 29.970 (29970/1000) FPS
Minimum frame rate : 15.000 FPS
Maximum frame rate : 30.000 FPS
Color space : YUV
Chroma subsampling : 4:2:0
Bit depth : 8 bits
Scan type : Progressive
Bits/(Pixel*Frame) : 0.077
Stream size : 21.2 MiB (88%)
Writing library : x264 core 138 r2358 9e941d1
Encoding settings : cabac=0 / ref=3 / deblock=1:0:0 / analyse=0x1:0x111 / me=hex / subme=7 / psy=1 / psy_rd=1.00:0.00 / mixed_ref=1 / me_range=16 / chroma_me=1 / trellis=1 / 8x8dct=0 / cqm=0 / deadzone=21,11 / fast_pskip=1 / chroma_qp_offset=-2 / threads=12 / lookahead_threads=2 / sliced_threads=0 / nr=0 / decimate=1 / interlaced=0 / bluray_compat=0 / constrained_intra=0 / bframes=0 / weightp=0 / keyint=250 / keyint_min=25 / scenecut=40 / intra_refresh=0 / rc_lookahead=40 / rc=2pass / mbtree=1 / bitrate=972 / ratetol=1.0 / qcomp=0.60 / qpmin=0 / qpmax=69 / qpstep=4 / cplxblur=20.0 / qblur=0.5 / ip_ratio=1.40 / aq=1:1.00
Language : English

Audio
ID : 2
Format : AAC
Format/Info : Advanced Audio Codec
Format profile : LC
Codec ID : 40
Duration : 3 min 3 s
Duration_LastFrame : -1 ms
Bit rate mode : Constant
Bit rate : 128 kb/s
Channel(s) : 2 channels
Channel positions : Front: L R
Sampling rate : 44.1 kHz
Frame rate : 43.066 FPS (1024 spf)
Compression mode : Lossy
Stream size : 2.80 MiB (12%)
Language : English
Default : Yes
Alternate group : 1
Screenshots

Truefire - Rock Chops with Scott Allen's

Truefire - Rock Chops with Scott Allen's

Truefire - Rock Chops with Scott Allen's

Truefire - Rock Chops with Scott Allen's

Exclusive eLearning Videos ParRus-blogadd to bookmarks

Feel free to contact me PM
when links are dead or want any repost

Truefire - Rock Chops with Scott Allen's