Tags
Language
Tags

Coursera - Data Structures and Design Patterns for Game Developers (2020)

Posted By: ParRus
Coursera - Data Structures and Design Patterns for Game Developers (2020)

Coursera - Data Structures and Design Patterns for Game Developers
WEBRip | English | MP4 | 1280 x 720 | AVC ~163 kbps | 30 fps
AAC | 128 Kbps | 44.1 KHz | 2 channels | Subs: English (.srt) | ~6 hours | 649 MB
Genre: eLearning Video / Game Development, Algorithms, Data Structures

This course is the fourth course in the specialization about learning how to develop video games using the C# programming language and the Unity game engine on Windows or Mac. Why use C# and Unity instead of some other language and game engine? Well, C# is a really good language for learning how to program and then programming professionally.
Also, the Unity game engine is very popular with indie game developers; Unity games were downloaded 16,000,000,000 times in 2016! Finally, C# is one of the programming languages you can use in the Unity environment.

This course assumes you have the prerequisite knowledge from the previous three courses in the specialization. You should make sure you have that knowledge, either by taking those previous courses or from personal experience, before tackling this course. The required prerequisite knowledge is listed in the "Who this class is for" section below. Throughout this course you'll build on your foundational C# and Unity knowledge by developing more robust games with better object-oriented designs using various data structures and design patterns.

Data structures and design patterns are both general programming and software architecture topics that span all software, not just games. Although we'll discuss these ideas in the game domain, they also apply if you're writing a web app in ASP.NET, building a tool using WinForms, or any other software you decide to build.

Module 1: Explore a Dynamic Array data structure and learn the basics of algorithm analysis
Module 2: Learn about and use the common Linked List and Graph data structures
Module 3: Learn about and use several additional data structures: Stacks, Queues, and Trees
Module 4: Learn why design patterns are so useful and discover a number of design patterns useful in game development
Module 5: Complete final peer review

“Unity” is a trademark or registered trademark of Unity Technologies or its affiliates in the U.S. and elsewhere.

This course is an independent work and is not sponsored by, authorized by, or affiliated with Unity Technologies or its affiliates

Syllabus

Dynamic Arrays and Algorithm Analysis
Linked Lists and Graphs
Stacks, Queues, and Trees
Design Patterns
Finishing Up

also You can find my other helpful Coursera-posts
(if old file-links don't show activity, try copy-paste them to the address bar)

General
Complete name : 020. Graph Analysis.mp4
Format : MPEG-4
Format profile : Base Media
Codec ID : isom (isom/iso2/avc1/mp41)
File size : 21.2 MiB
Duration : 9 min 52 s
Overall bit rate : 300 kb/s
Writing application : Lavf55.33.100

Video
ID : 1
Format : AVC
Format/Info : Advanced Video Codec
Format profile : Main@L3.1
Format settings : CABAC / 4 Ref Frames
Format settings, CABAC : Yes
Format settings, RefFrames : 4 frames
Codec ID : avc1
Codec ID/Info : Advanced Video Coding
Duration : 9 min 52 s
Bit rate : 163 kb/s
Width : 1 280 pixels
Height : 720 pixels
Display aspect ratio : 16:9
Frame rate mode : Constant
Frame rate : 30.000 FPS
Color space : YUV
Chroma subsampling : 4:2:0
Bit depth : 8 bits
Scan type : Progressive
Bits/(Pixel*Frame) : 0.006
Stream size : 11.5 MiB (54%)
Writing library : x264 core 142
Encoding settings : cabac=1 / ref=3 / deblock=1:0:0 / analyse=0x1:0x111 / me=hex / subme=7 / psy=1 / psy_rd=1.00:0.00 / mixed_ref=1 / me_range=16 / chroma_me=1 / trellis=1 / 8x8dct=0 / cqm=0 / deadzone=21,11 / fast_pskip=1 / chroma_qp_offset=-2 / threads=12 / lookahead_threads=2 / sliced_threads=0 / nr=0 / decimate=1 / interlaced=0 / bluray_compat=0 / constrained_intra=0 / bframes=3 / b_pyramid=2 / b_adapt=1 / b_bias=0 / direct=1 / weightb=1 / open_gop=0 / weightp=2 / keyint=250 / keyint_min=25 / scenecut=40 / intra_refresh=0 / rc_lookahead=40 / rc=crf / mbtree=1 / crf=24.0 / qcomp=0.60 / qpmin=0 / qpmax=69 / qpstep=4 / ip_ratio=1.40 / aq=1:1.00
Language : English

Audio
ID : 2
Format : AAC
Format/Info : Advanced Audio Codec
Format profile : LC
Codec ID : mp4a-40-2
Duration : 9 min 52 s
Duration_LastFrame : -2 ms
Bit rate mode : Constant
Bit rate : 128 kb/s
Channel(s) : 2 channels
Channel positions : Front: L R
Sampling rate : 44.1 kHz
Frame rate : 43.066 FPS (1024 SPF)
Compression mode : Lossy
Stream size : 9.04 MiB (43%)
Language : English
Default : Yes
Alternate group : 1
Screenshots

Coursera - Data Structures and Design Patterns for Game Developers (2020)

Coursera - Data Structures and Design Patterns for Game Developers (2020)

Coursera - Data Structures and Design Patterns for Game Developers (2020)

Coursera - Data Structures and Design Patterns for Game Developers (2020)

Coursera - Data Structures and Design Patterns for Game Developers (2020)

✅ Exclusive eLearning Videos ParRus-blogadd to bookmarks
Feel free to contact me PM
when links are dead or want any repost

Coursera - Data Structures and Design Patterns for Game Developers (2020)