Subcategories

Coursera - Drug Discovery, Development & Commercialization

Posted By: ParRus
Coursera - Drug Discovery, Development & Commercialization

Coursera - Drug Discovery, Development & Commercialization
University of California, San Diego with Dr. Williams Ettouati and Joseph D. Ma, PharmD

WEBRip | English | MP4 + PDF Guides | 960 x 540 | AVC ~73 kbps | 29.970 fps
AAC | 128 Kbps | 44.1 KHz | 1 channel | Subs: English (.srt) | 15:39:18 | 1.48 GB
Genre: eLearning Video / Pharmaceutical Sciences, Chemistry, Biology, Health, Medicine

Students will learn the process of drug discovery and development through specific examples of case studies to better understand the issues facing the challenges of delivering a new drug on the market. At the completion of this course you will be able to have a better understanding of how a small or large molecule becomes a pharmaceutical drug.
The University of California San Diego, Skaggs School of Pharmacy and Pharmaceutical Sciences Drug Discovery, Development & Commercialization course focuses on drug discovery, development and commercialization.
In this course, you will learn about the complete process of drug discovery, development, pharmacoeconomics, biosimilars, regulatory affairs, managed markets, portfolio management and strategic marketing of a new pharmaceutical drug.

Students will also learn that shifting the current drug discovery paradigm from ‘finding new-entity drugs’ to ‘combining existing agents’ may be helpful for overcoming the current financial challenges that exist in the pharmaceutical/biotech market.

The following course objectives will be:

1. Understand the pharmaceutical and biotechnology market a changing landscape
2. Understand the major aspects of the drug discovery process, starting with target selection, to compound screening to designing lead candidates.
3. Recognize current modern drug discovery based on the lock-and-key theory, which attempts to use one single compound to hit one target to combat the related disease.
4. Increase understanding of the various drug discovery tools and methods that are used for finding, identifying and designing a new drug.
5. Define and understand the regulatory responsibilities for drug discovery, including but not limited to, an Investigational New Drug Application (IND), New Drug Application (NDA), and product labeling.
6. Incorporate study design methods for consideration in the design of clinical protocols to access safety, tolerability, and efficacy in multiple therapeutic areas.
7. Identify the critical components for development of a commercialization strategy and a marketing plan to launch a new drug.

FAQ
Will I get a Statement of Accomplishment after completing this class?
Yes. Students who successfully complete the class will receive a Statement of Accomplishment
What resources will I need for this class?
For this course, all you need is an Internet connection, and the time to read, write, and discuss, with your peers.
What is the coolest thing I'll learn if I take this class?
This course aims to help everyone think about what it takes to develop a new drug. In the context of stringent regulatory and marketing regulations and an increasingly competitive landscape, greater emphasis is need to be placed on when and how each phase of a pharmaceutical products lifecycle is managed in order to maximize return on investment.
You will learn how to develop a Life Cycle Strategic Plan (LCSP) and look at all the key decision gates in drug discovery, development and commercialization including go/no-go decisions for development of a pharmaceutical product.
Asking the right questions at the right time is the key to strategic drug development planning.
The LCSP presentation will include the different sections ranging from draft product label, marketing research, pre-clinical, clinical development, manufacturing, regulatory and legal strategy, intellectual property strategy, marketing, SWOT analyses, pricing, reimbursement, finance and commercialization and sales strategies including potential partnering strategy.

Syllabus

Week 1:
- Pharmaceutical & Biotechnology Industry Landscape, Williams Ettouati, Pharm. D.
- Drug Discovery & Development Process: Life Cycle Strategic Plan, Williams Ettouati, Pharm.D.

Week 2:
- Drug Discovery: Proteomics, Genomics, Philip Bourne, Ph.D.
- Compound Selection & Preclinical Studies, Ronald Christopher, Ph.D.

Week 3:
- Challenges in Fragment Based Drug Discovery for Protein Kinases, Stephen Burley, M.D., Ph.D.
- Key Concepts in Drug Delivery, Brookie Best, Pharm.D.

Week 4:
- Regulatory Considerations When Filing an Investigational New Drug Application, Susan Trieu, Pharm.D.
- Clinical Study & Start-up activities, Joseph Ma, Pharm.D.

Week 5:
- Clinical Trials: Phase 1, Yazdi Pithavala, Ph.D.
- Phase II Clinical Trials, Kourosh Parivar, M.Pharm.

Week 6:
- Industry Considerations with Phase III Clinical Trials, Katie Lyons, Pharm.D.
- New Drug Application, Filing, Product Labeling, Kelly Hogan, Pharm.D.

Week 7:
- Pharmacoeconomics in Drug Development, Jan Hirsch, Ph.D.
- Intellectual Property Strategy & BioSimilars, Williams Ettouati, Pharm.D.

Week 8:
- Marketing Pharmaceuticals & Biotechnology Drugs, Williams Ettouati, Pharm.D.
- Managed Markets and Sales Strategy, Doral Fredericks, Pharm.D., MBA

Week 9:
- Academic Industry partnership "Various models, Various outcomes", Remi Brouard, M.D.
- From Start up to Success in Biotech, Barry Quart, Pharm.D.

also You can watch my other last: Coursera-posts

General
Complete name : 05_Week_Four_Regulatory_Considerations_When_Filing_an_Investigational_New_Drug_Application_Part_Five.mp4
Format : MPEG-4
Format profile : Base Media
Codec ID : isom
File size : 9.52 MiB
Duration : 6mn 20s
Overall bit rate : 210 Kbps
Writing application : Lavf55.19.104

Video
ID : 1
Format : AVC
Format/Info : Advanced Video Codec
Format profile : Main@L3.1
Format settings, CABAC : Yes
Format settings, ReFrames : 4 frames
Codec ID : avc1
Codec ID/Info : Advanced Video Coding
Duration : 6mn 20s
Bit rate : 73.0 Kbps
Width : 960 pixels
Height : 540 pixels
Display aspect ratio : 16:9
Frame rate mode : Constant
Frame rate : 29.970 fps
Color space : YUV
Chroma subsampling : 4:2:0
Bit depth : 8 bits
Scan type : Progressive
Bits/(Pixel*Frame) : 0.005
Stream size : 3.31 MiB (35%)
Writing library : x264 core 138
Encoding settings : cabac=1 / ref=3 / deblock=1:0:0 / analyse=0x1:0x111 / me=hex / subme=7 / psy=1 / psy_rd=1.00:0.00 / mixed_ref=1 / me_range=16 / chroma_me=1 / trellis=1 / 8x8dct=0 / cqm=0 / deadzone=21,11 / fast_pskip=1 / chroma_qp_offset=-2 / threads=12 / lookahead_threads=2 / sliced_threads=0 / nr=0 / decimate=1 / interlaced=0 / bluray_compat=0 / constrained_intra=0 / bframes=3 / b_pyramid=2 / b_adapt=1 / b_bias=0 / direct=1 / weightb=1 / open_gop=0 / weightp=2 / keyint=250 / keyint_min=25 / scenecut=40 / intra_refresh=0 / rc_lookahead=40 / rc=crf / mbtree=1 / crf=28.0 / qcomp=0.60 / qpmin=0 / qpmax=69 / qpstep=4 / ip_ratio=1.40 / aq=1:1.00
Language : English

Audio
ID : 2
Format : AAC
Format/Info : Advanced Audio Codec
Format profile : LC
Codec ID : 40
Duration : 6mn 20s
Duration_LastFrame : -21ms
Bit rate mode : Constant
Bit rate : 128 Kbps
Channel(s) : 2 channels
Channel(s)_Original : 1 channel
Channel positions : Front: C
Sampling rate : 44.1 KHz
Compression mode : Lossy
Stream size : 5.81 MiB (61%)
Language : English
Screenshots

Coursera - Drug Discovery, Development & Commercialization

Coursera - Drug Discovery, Development & Commercialization

Coursera - Drug Discovery, Development & Commercialization

Coursera - Drug Discovery, Development & Commercialization

Coursera - Drug Discovery, Development & Commercialization

Coursera - Drug Discovery, Development & Commercialization

Coursera - Drug Discovery, Development & Commercialization

Exclusive eLearning Videos ParRus-blogadd to bookmarks

Coursera - Drug Discovery, Development & Commercialization