Insane Home Fat Loss with Mike Chang's [reduced]

Posted By: ParRus
Insane Home Fat Loss with Mike Chang's [reduced]

Insane Home Fat Loss with Mike Chang's
WEBRip | English | MP4 + PDF Guides | 720 x 480 | AVC ~2400 kbps | 24 fps
AAC | 132 Kbps | 48.0 KHz | 2 channels | 02:55:21 | 3.09 GB
Genre: eLearning Video / Fitness, Cardio Workout, Health

Effective short 20 minute workout (9) without the equipment (at home) to burn fat and acceleration of metabolism. That's where home fat loss comes in. You see, you can burn just as much fat as home as you can at the gym. It's just a matter of knowing what to do to get maximum results. Mike Chang, the guy famous for Six Pack Short Cuts has a new program called Insane Home Fat Loss, that's all about getting ripped at home..
Mike Chang's Insane Home Fat Loss program is a complete system for blasting that fat off of you that you can do in the comfort of your own home.

In fact, the only piece of work out equipment that you need to use this system is a towel… Yep, i said a towel, like the kind that you have in your bedroom. Weird I know.

As far as the exercises themselves go, the whole program consists of rather simple exercises, so these aren't like complex Olympic lifts or anything. They are all what we call "body-weight exercises" meaning that you use your own body weight for resistance, hence the fact that you don't need any equipment…

The way it works is cool too. Rather than just getting some ebook that you need to motivate yourself to read and follow, the Insane Home Fat Loss program consists of videos where you work out right along side Mike. The workouts are short and he switches it up so you aren't doing the same old thing over and over again.

All in all I think that the best part of this system is the fact that Mike has great high energy to keep you motivated and powering through your workouts. If you have any experience with fitness then you know it takes motivation and inspiration to get to the perspiration part where you actually burn off that fat!

My Recommendation On Insane Home Fat Loss

This is one of the best fitness products I've ever tried and for me it's pretty perfect because my wife just had a baby, and I would rather stay close to home with my family, rather than go to the gym five days a week like I used to.

Some people may wonder why you need a training course like this in order to lose weight at home, thinking that all they need to do is buy a treadmill… Well, take it from somebody who has bought a ton of home fitness equipment… just having that stuff is not enough. My recumbant exercise bike turned into a coat rack and my treadmill got covered with all kinds of junk because I would never use it…

Nope, if you really want to get into shape at home then I think that Mike's training course is a much better alternative because he will keep you on task and make sure that you keep on task, working out, and reaching your goals. I've been following the program for a while now and I can say that it is a great course…

That said, I was already in very good shape when I got started with Insane Home Fat Loss, so I don't have a lot of fat to lose… But you can hear success stories from people who have seen really impress changes in there bodies here on Mike's website: Official Insane Home Fat Loss Website
A Few Tips On Working Out At Home…

Recently, since I have been following Mike's Insane Home Fat Loss Program I have been working out at home 90% of the time. This is a big change for me because I used to go to the gym days a week… Here are a few tips I have found make working at home easier:

Tip #1) Work out at the same time every day - When I first started working out at home I missed a lot of workouts because I kept saying "I'll do it later"… And then I'd get distracted. Instead you've got to pick a time and stick to it. Remember if you follow Mike's program these are only 20 minute workouts! So if you keep that in mind it is easy to bang 'em out quick and get on with your day.

Tip #2) Reward Yourself - One good way to make sure that you stick with your workouts is to do something nice for yourself AFTER you workout. So for example you could say, "After I workout for 20 minutes I'll go take a walk in my garden and have a popsicle"… or whatever else is a treat for you…

Tip #3) Follow A Program - I used to try to work out at home for years, but it never really clicked for me until I started following Mike's program. Personally I find the structure that following a program provides to be invaluable.


✔day 1: Fit-test
✔day 2: The Fatal Assassin
✔day 3: Maximum After-Burn
✔day 4: The Super Hero
✔day 5: The Fat Destroyer
✔day 6: Upper Body Blaster
✔day 7: The Knock Out
✔day 8: The Kamikaze
✔day 9: Cores Galore

mov version: Mike Chang's - Insane Home Fat Loss: Home Training System (2012)

and You can find my other last: Fitness-posts

Complete name : IHFL Day 2 - The Fatal Assassin (Chest, back, core) .mp4
Format : MPEG-4
Format profile : Base Media
Codec ID : isom (isom/iso2/avc1/mp41)
File size : 292 MiB
Duration : 16 min 17 s
Overall bit rate : 2 508 kb/s
Writing application : Lavf57.41.100

ID : 1
Format : AVC
Format/Info : Advanced Video Codec
Format profile : High@L3
Format settings, CABAC : Yes
Format settings, ReFrames : 4 frames
Codec ID : avc1
Codec ID/Info : Advanced Video Coding
Duration : 16 min 17 s
Bit rate : 2 400 kb/s
Width : 720 pixels
Height : 480 pixels
Display aspect ratio : 16:9
Original display aspect ratio : 16:9
Frame rate mode : Constant
Frame rate : 24.000 FPS
Color space : YUV
Chroma subsampling : 4:2:0
Bit depth : 8 bits
Scan type : Progressive
Bits/(Pixel*Frame) : 0.289
Stream size : 276 MiB (95%)
Writing library : x264 core 148
Encoding settings : cabac=1 / ref=3 / deblock=1:0:0 / analyse=0x3:0x113 / me=hex / subme=7 / psy=1 / psy_rd=1.00:0.00 / mixed_ref=1 / me_range=16 / chroma_me=1 / trellis=1 / 8x8dct=1 / cqm=0 / deadzone=21,11 / fast_pskip=1 / chroma_qp_offset=-2 / threads=6 / lookahead_threads=1 / sliced_threads=0 / nr=0 / decimate=1 / interlaced=0 / bluray_compat=0 / constrained_intra=0 / bframes=3 / b_pyramid=2 / b_adapt=1 / b_bias=0 / direct=1 / weightb=1 / open_gop=0 / weightp=2 / keyint=250 / keyint_min=24 / scenecut=40 / intra_refresh=0 / rc_lookahead=40 / rc=abr / mbtree=1 / bitrate=2400 / ratetol=1.0 / qcomp=0.60 / qpmin=0 / qpmax=69 / qpstep=4 / ip_ratio=1.40 / aq=1:1.00
Language : English

ID : 2
Format : AAC
Format/Info : Advanced Audio Codec
Format profile : LC
Codec ID : 40
Duration : 16 min 17 s
Duration_LastFrame : -4 ms
Bit rate mode : Constant
Bit rate : 132 kb/s
Channel(s) : 2 channels
Channel positions : Front: L R
Sampling rate : 48.0 kHz
Frame rate : 46.875 FPS (1024 spf)
Compression mode : Lossy
Stream size : 15.3 MiB (5%)
Language : English
Default : Yes
Alternate group : 1


Insane Home Fat Loss with Mike Chang's [reduced]

Insane Home Fat Loss with Mike Chang's [reduced]

Insane Home Fat Loss with Mike Chang's [reduced]

Insane Home Fat Loss with Mike Chang's [reduced]

Insane Home Fat Loss with Mike Chang's [reduced]

Insane Home Fat Loss with Mike Chang's [reduced]

Exclusive eLearning Videos ParRus-blogadd to bookmarks

Feel free to contact me PM
when links are dead or want any repost

Insane Home Fat Loss with Mike Chang's [reduced]